<?xml version="1.0" standalone="no"?>
<!DOCTYPE svg PUBLIC "-//W3C//DTD SVG 1.1//EN" "http://www.w3.org/Graphics/SVG/1.1/DTD/svg11.dtd" >
<svg xmlns="http://www.w3.org/2000/svg" xmlns:xlink="http://www.w3.org/1999/xlink" version="1.1">
<metadata>
Created by FontForge 20181014 at Sat Sep 28 23:42:20 2013
 By convertio
Copyright (C) 2005 Emigre Inc.; Designed by Xavier Dupre
</metadata>
<defs>
<font id="VistaSansBook" horiz-adv-x="500" >
  <font-face 
    font-family="VistaSansBook"
    font-weight="400"
    font-stretch="normal"
    units-per-em="1000"
    panose-1="2 0 6 3 3 0 0 2 0 4"
    ascent="800"
    descent="-200"
    x-height="522"
    cap-height="674"
    bbox="-82 -217 1122 876"
    underline-thickness="20"
    underline-position="-133"
    stemh="72"
    stemv="77"
    unicode-range="U+0020-FB02"
  />
<missing-glyph 
 />
    <glyph glyph-name=".notdef" 
 />
    <glyph glyph-name="Eth" unicode="&#xd0;" horiz-adv-x="685" 
d="M621 351c0 -241 -124 -360 -294 -360c-61 0 -153 4 -224 14v314h-60v71h60v277c57 8 163 14 223 14c168 0 295 -96 295 -330zM530 342c0 215 -106 265 -207 265c-50 0 -91 -2 -136 -6v-211h120c0 -21 -4 -46 -9 -71h-111v-247c37 -4 96 -7 135 -7c136 0 208 91 208 277z
" />
    <glyph glyph-name="eth" unicode="&#xf0;" horiz-adv-x="549" 
d="M494 370c0 -258 -66 -380 -218 -380c-138 0 -220 72 -220 260c0 180 92 273 232 273c35 0 81 -6 118 -17c-14 122 -60 164 -156 168l-46 -100c-18 1 -36 3 -52 9l40 89c-35 -4 -71 -13 -93 -23c0 26 3 55 5 71c35 15 84 22 120 24l32 71c15 0 37 -4 52 -12l-28 -61
c128 -12 214 -89 214 -372zM414 337c0 35 -2 70 -4 99c-32 12 -78 19 -117 19c-89 0 -154 -50 -154 -198c0 -150 41 -198 136 -198s139 55 139 278z" />
    <glyph glyph-name="Lslash" unicode="&#x141;" horiz-adv-x="498" 
d="M478 75c0 -24 -3 -50 -8 -75h-367v312l-61 -21v72l61 21v290h84v-260l92 33c0 -26 -3 -52 -9 -76l-83 -29v-267h291z" />
    <glyph glyph-name="lslash" unicode="&#x142;" horiz-adv-x="280" 
d="M179 0h-78v327l-54 -18v73l54 18v337c20 4 55 7 78 7v-318l56 19c0 -26 -2 -52 -7 -75l-49 -17v-353z" />
    <glyph glyph-name="Scaron" unicode="&#x160;" horiz-adv-x="519" 
d="M422 812c-36 -48 -55 -70 -87 -104h-108c-33 34 -55 61 -85 103c18 4 45 6 66 6l74 -77l74 77c18 0 47 -2 66 -5zM464 178c0 -112 -81 -188 -219 -188c-55 0 -126 8 -179 31c3 24 12 55 19 75c55 -24 111 -33 168 -33c83 0 127 38 127 108c0 153 -314 136 -314 329
c0 119 93 184 225 184c43 0 101 -5 141 -15c0 -18 -6 -53 -13 -76c-41 11 -96 18 -138 18c-102 0 -130 -42 -130 -103c0 -134 313 -122 313 -330z" />
    <glyph glyph-name="scaron" unicode="&#x161;" horiz-adv-x="449" 
d="M103 727c20 5 43 7 66 7l81 -112l81 112c19 0 45 -2 64 -6c-33 -58 -64 -104 -100 -153h-92c-37 49 -69 97 -100 152zM392 142c0 -105 -87 -152 -188 -152c-50 0 -108 10 -149 32c6 24 12 48 21 70c41 -21 95 -31 144 -31c65 0 90 27 90 75c0 113 -245 83 -245 240
c0 102 85 156 189 156c32 0 82 -4 120 -15c0 -21 -6 -51 -12 -73c-36 13 -87 19 -129 19c-57 0 -89 -24 -89 -78c0 -96 248 -72 248 -243z" />
    <glyph glyph-name="Yacute" unicode="&#xdd;" horiz-adv-x="550" 
d="M526 669c-71 -151 -131 -272 -210 -412v-257h-84v257c-79 137 -147 276 -208 412c24 5 63 7 87 7l143 -294c7 -15 14 -32 20 -50h6c6 18 12 35 20 52l144 292c25 0 57 -2 82 -7zM380 815c-20 -40 -44 -70 -88 -109c-13 0 -54 5 -65 7l71 102h82z" />
    <glyph glyph-name="yacute" unicode="&#xfd;" horiz-adv-x="510" 
d="M481 518l-176 -509c-55 -158 -117 -225 -209 -225c-24 0 -59 3 -89 19c3 25 9 53 17 72c20 -10 50 -16 77 -16c41 0 69 22 90 71l30 70c-63 150 -134 348 -180 518c21 4 54 7 76 7l125 -384c6 -19 13 -41 16 -62h4c4 21 10 43 17 63l126 383c20 0 55 -2 76 -7zM378 731
c-18 -51 -56 -110 -98 -159c-18 0 -43 2 -58 7l78 152h78z" />
    <glyph glyph-name="Thorn" unicode="&#xde;" horiz-adv-x="568" 
d="M511 350c0 -151 -110 -216 -229 -216h-96v-134h-83v674h83v-120c36 4 65 5 101 5c122 0 224 -60 224 -209zM426 350c0 104 -64 141 -141 141c-24 0 -58 -2 -99 -6v-282h84c93 0 156 43 156 147z" />
    <glyph glyph-name="thorn" unicode="&#xfe;" horiz-adv-x="575" 
d="M512 277c0 -200 -86 -287 -229 -287c-35 0 -72 7 -104 19v-215h-78v943c20 4 55 7 78 7v-267h4c49 42 94 55 146 55c108 0 183 -73 183 -255zM429 268c0 156 -46 194 -123 194c-43 0 -87 -13 -127 -41v-339c30 -16 67 -23 102 -23c99 0 148 54 148 209z" />
    <glyph glyph-name="Zcaron" unicode="&#x17d;" horiz-adv-x="550" 
d="M505 74c0 -23 -3 -53 -7 -74h-446l-7 67l357 533h-337c-4 24 -6 51 -6 74h434l6 -67l-356 -533h362zM417 812c-36 -48 -55 -70 -87 -104h-108c-33 34 -55 61 -85 103c18 4 45 6 66 6l74 -77l74 77c18 0 47 -2 66 -5z" />
    <glyph glyph-name="zcaron" unicode="&#x17e;" horiz-adv-x="469" 
d="M424 0h-378l-8 63l286 392h-261c-3 23 -5 48 -5 67h349l8 -63l-286 -392h285c6 -22 10 -46 10 -67zM86 727c20 5 43 7 66 7l81 -112l81 112c19 0 45 -2 64 -6c-33 -58 -64 -104 -100 -153h-92c-37 49 -69 97 -100 152z" />
    <glyph glyph-name="DLE" horiz-adv-x="563" 
d="M500 80l-47 -46l-52 58c-34 -26 -77 -41 -120 -41c-46 0 -87 13 -121 40l-50 -57l-48 46l53 57c-26 37 -42 84 -42 139c0 56 17 104 43 140l-52 55l47 46l50 -55c35 27 78 40 122 40c45 0 87 -13 121 -37l48 52l47 -45l-50 -54c26 -35 43 -83 43 -140
c0 -56 -17 -103 -45 -141zM426 277c0 102 -62 161 -143 161c-74 0 -144 -59 -144 -161c0 -103 59 -162 141 -162c80 0 146 59 146 162z" />
    <glyph glyph-name="Euro" unicode="&#x20ac;" 
d="M389 232h-210c15 -118 61 -170 148 -170c43 0 91 11 127 32c5 -24 8 -49 9 -76c-38 -20 -92 -28 -136 -28c-129 0 -206 79 -228 242h-65v56h60c-1 16 -1 32 -1 50c0 20 0 39 2 58h-61v55h67c26 165 113 233 225 233c37 0 96 -7 126 -20c0 -23 -3 -52 -9 -76
c-30 13 -76 23 -116 23c-80 0 -129 -41 -146 -160h234c0 -14 -3 -37 -8 -55h-232c-1 -19 -1 -39 -1 -61c0 -17 0 -32 1 -47h222c0 -15 -3 -37 -8 -56z" />
    <glyph glyph-name="onehalf" unicode="&#xbd;" horiz-adv-x="838" 
d="M315 343c0 -15 -1 -41 -5 -56h-267v56h126v274l-118 -19c-5 14 -7 38 -7 52l129 24h55v-331h87zM805 56c0 -16 -2 -39 -4 -56h-263l-3 50c140 96 184 154 184 215c0 53 -32 72 -80 72c-33 0 -71 -8 -90 -18c-5 15 -9 43 -10 57c31 12 76 18 108 18c81 0 137 -41 137 -127
c0 -67 -45 -134 -158 -211h179zM584 672l-274 -680c-20 3 -36 9 -51 17l271 675c16 -1 38 -5 54 -12z" />
    <glyph glyph-name="onequarter" unicode="&#xbc;" horiz-adv-x="828" 
d="M315 343c0 -15 -1 -41 -5 -56h-267v56h126v274l-118 -19c-5 14 -7 38 -7 52l129 24h55v-331h87zM814 138c0 -14 -3 -40 -6 -54h-50v-84h-57v84h-193v56c49 90 117 189 167 254c11 0 43 -5 54 -9l-163 -249h136v88h56v-86h56zM584 672l-274 -680c-20 3 -36 9 -51 17
l271 675c16 -1 38 -5 54 -12z" />
    <glyph glyph-name="onesuperior" unicode="&#xb9;" horiz-adv-x="339" 
d="M315 343c0 -15 -1 -41 -5 -56h-267v56h126v274l-118 -19c-5 14 -7 38 -7 52l129 24h55v-331h87z" />
    <glyph glyph-name="threequarters" unicode="&#xbe;" horiz-adv-x="828" 
d="M293 396c0 -78 -64 -116 -160 -116c-33 0 -75 6 -103 17c1 19 5 45 10 58c27 -11 55 -19 92 -19c59 0 95 14 95 61c0 50 -32 62 -87 62h-66v54h64c59 0 81 22 81 61c0 37 -31 51 -81 51c-33 0 -62 -6 -87 -15c-4 11 -8 38 -9 56c34 11 70 15 105 15c74 0 136 -27 136 -99
c0 -45 -26 -76 -66 -89v-3c47 -12 76 -43 76 -94zM814 138c0 -14 -3 -40 -6 -54h-50v-84h-57v84h-193v56c49 90 117 189 167 254c11 0 43 -5 54 -9l-163 -249h136v88h56v-86h56zM584 672l-274 -680c-20 3 -36 9 -51 17l271 675c16 -1 38 -5 54 -12z" />
    <glyph glyph-name="threesuperior" unicode="&#xb3;" horiz-adv-x="339" 
d="M293 396c0 -78 -64 -116 -160 -116c-33 0 -75 6 -103 17c1 19 5 45 10 58c27 -11 55 -19 92 -19c59 0 95 14 95 61c0 50 -32 62 -87 62h-66v54h64c59 0 81 22 81 61c0 37 -31 51 -81 51c-33 0 -62 -6 -87 -15c-4 11 -8 38 -9 56c34 11 70 15 105 15c74 0 136 -27 136 -99
c0 -45 -26 -76 -66 -89v-3c47 -12 76 -43 76 -94z" />
    <glyph glyph-name="twosuperior" unicode="&#xb2;" horiz-adv-x="339" 
d="M306 343c0 -16 -2 -39 -4 -56h-263l-3 50c140 96 184 154 184 215c0 53 -32 72 -80 72c-33 0 -71 -8 -90 -18c-5 15 -9 43 -10 57c31 12 76 18 108 18c81 0 137 -41 137 -127c0 -67 -45 -134 -158 -211h179z" />
    <glyph glyph-name="brokenbar" unicode="&#xa6;" horiz-adv-x="252" 
d="M158 401h-64v273h64v-273zM158 0h-64v277h64v-277z" />
    <glyph glyph-name="minus" unicode="&#x2212;" horiz-adv-x="501" 
d="M427 243h-353v65h353v-65z" />
    <glyph glyph-name="multiply" unicode="&#xd7;" horiz-adv-x="496" 
d="M441 76l-45 -44l-148 153l-150 -153l-43 44l151 152l-151 149l43 44l150 -153l148 153l45 -44l-152 -149z" />
    <glyph glyph-name="space" unicode=" " horiz-adv-x="204" 
 />
    <glyph glyph-name="exclam" unicode="!" horiz-adv-x="244" 
d="M162 674c0 -159 -4 -334 -11 -485c-17 -4 -39 -7 -58 -7c-7 156 -12 331 -12 492h81zM168 36c0 -30 -19 -47 -46 -47s-47 17 -47 47c0 31 21 50 47 50c27 0 46 -19 46 -50z" />
    <glyph glyph-name="quotedbl" unicode="&#x22;" horiz-adv-x="331" 
d="M134 713l-17 -260c-15 -5 -33 -8 -51 -8l-16 268h84zM281 713l-17 -260c-16 -5 -34 -8 -51 -8l-16 268h84z" />
    <glyph glyph-name="numbersign" unicode="#" horiz-adv-x="502" 
d="M476 508c0 -21 -4 -47 -10 -70h-95l-33 -195h97c0 -20 -3 -46 -9 -68h-100l-29 -175h-55l29 175h-99l-29 -175h-55l29 175h-91c0 22 4 48 11 68h92l33 195h-96c1 23 4 49 11 70h97l28 166h55l-28 -166h98l29 166h55l-28 -166h93zM283 243l33 195h-99l-33 -195h99z" />
    <glyph glyph-name="dollar" unicode="$" 
d="M446 216c0 -80 -63 -148 -177 -158l3 -58h-73l3 57c-48 2 -102 9 -143 25c2 20 8 54 15 70c50 -20 111 -28 170 -28c80 0 126 30 126 86c0 139 -315 72 -315 255c0 84 69 144 175 155l-2 54h74l-3 -51c37 -2 79 -6 114 -12c-1 -18 -5 -49 -10 -70c-38 9 -98 15 -143 15
c-101 0 -130 -36 -130 -85c0 -117 316 -53 316 -255z" />
    <glyph glyph-name="percent" horiz-adv-x="805" 
d="M344 494c0 -119 -54 -190 -152 -190c-94 0 -155 60 -155 190c0 126 64 190 155 190c97 0 152 -62 152 -190zM278 494c0 85 -21 136 -86 136c-62 0 -88 -47 -88 -136c0 -92 25 -136 88 -136s86 48 86 136zM568 671l-270 -680c-20 3 -39 9 -57 18l265 671c20 0 44 -4 62 -9
zM768 180c0 -119 -55 -190 -153 -190c-94 0 -155 60 -155 190c0 126 64 190 155 190c97 0 153 -62 153 -190zM701 180c0 85 -20 136 -86 136c-61 0 -88 -47 -88 -136c0 -92 26 -136 88 -136c63 0 86 48 86 136z" />
    <glyph glyph-name="ampersand" unicode="&#x26;" horiz-adv-x="637" 
d="M502 131l106 -129c-24 -5 -57 -10 -81 -10l-77 91c-75 -67 -134 -93 -204 -93c-133 0 -196 79 -196 190c0 94 38 144 156 206c-38 58 -51 101 -51 138c0 102 68 160 163 160c92 0 146 -51 146 -136c0 -72 -55 -129 -157 -179c8 -11 104 -131 154 -187
c35 36 75 82 124 142c4 -27 8 -61 8 -91c-33 -40 -63 -74 -91 -102zM242 335c-101 -55 -116 -86 -116 -151c0 -89 50 -124 125 -124c43 0 88 11 158 74c-44 51 -158 188 -167 201zM395 552c0 50 -30 74 -80 74c-51 0 -87 -27 -87 -90c0 -35 9 -68 42 -118
c105 53 125 86 125 134z" />
    <glyph glyph-name="quotesingle" unicode="'" horiz-adv-x="184" 
d="M134 713l-17 -260c-15 -5 -33 -8 -51 -8l-16 268h84z" />
    <glyph glyph-name="parenleft" unicode="(" horiz-adv-x="264" 
d="M236 -164c-17 -7 -42 -11 -61 -11c-81 135 -121 299 -121 459c0 162 39 320 121 457c18 0 43 -5 61 -11c-67 -121 -107 -285 -107 -441c0 -158 40 -330 107 -453z" />
    <glyph glyph-name="parenright" unicode=")" horiz-adv-x="264" 
d="M211 282c0 -162 -40 -320 -122 -457c-18 0 -42 5 -61 11c67 121 107 285 107 441c0 158 -40 330 -107 453c18 7 43 11 61 11c82 -135 122 -299 122 -459z" />
    <glyph glyph-name="asterisk" unicode="*" horiz-adv-x="427" 
d="M410 507l-162 -34l103 -117c-17 -19 -40 -40 -60 -54l-84 142l-79 -133c-23 10 -49 25 -70 41l111 122l-152 35c2 26 9 54 18 79l150 -67l-14 155c25 5 55 8 81 8l-18 -165l143 62c13 -22 25 -50 33 -74z" />
    <glyph glyph-name="plus" unicode="+" horiz-adv-x="496" 
d="M454 303v-60h-174v-198h-63v198h-175v60h175v197h63v-197h174z" />
    <glyph glyph-name="comma" unicode="," horiz-adv-x="214" 
d="M153 59c0 -78 -46 -154 -117 -232l-59 26c84 99 105 141 105 225v35h67c3 -13 4 -41 4 -54z" />
    <glyph glyph-name="hyphen" unicode="-" horiz-adv-x="250" 
d="M216 266h-182v68h182v-68z" />
    <glyph glyph-name="period" unicode="." horiz-adv-x="214" 
d="M153 36c0 -31 -19 -47 -46 -47s-46 17 -46 47c0 31 20 50 47 50c26 0 45 -19 45 -50z" />
    <glyph glyph-name="slash" unicode="/" horiz-adv-x="370" 
d="M357 671l-312 -785c-25 5 -43 11 -61 21l309 777c17 0 46 -6 64 -13z" />
    <glyph glyph-name="zero" unicode="0" 
d="M457 273c0 -176 -74 -283 -206 -283c-125 0 -208 88 -208 283c0 186 87 282 208 282c130 0 206 -91 206 -282zM379 273c0 135 -30 215 -128 215c-92 0 -130 -77 -130 -215c0 -143 37 -217 130 -217c92 0 128 80 128 217z" />
    <glyph glyph-name="one" unicode="1" 
d="M467 0h-392v72h186v399l-171 -26c-6 20 -10 48 -10 67l182 33h74v-473h137c0 -21 -1 -50 -6 -72z" />
    <glyph glyph-name="two" unicode="2" 
d="M179 72h272c0 -23 -2 -48 -7 -72h-370l-5 66c202 136 263 222 263 308c0 74 -43 109 -110 109c-47 0 -104 -12 -132 -27c-7 23 -13 49 -14 72c46 18 98 27 146 27c118 0 192 -58 192 -178c0 -95 -72 -197 -235 -305z" />
    <glyph glyph-name="three" unicode="3" 
d="M426 64c0 -141 -106 -203 -228 -203c-49 0 -111 11 -152 29c3 27 8 54 14 73c42 -21 88 -29 143 -29c89 0 141 41 141 130s-51 123 -129 123h-104v71h94c94 0 120 53 120 123c0 65 -43 101 -118 101c-48 0 -93 -9 -131 -24c-6 21 -11 50 -13 73c51 18 102 24 152 24
c105 0 191 -49 191 -168c0 -78 -37 -131 -98 -156v-5c75 -22 118 -80 118 -162z" />
    <glyph glyph-name="four" unicode="4" 
d="M460 103c0 -22 -4 -48 -8 -70h-76v-162h-75v162h-254v72c60 137 165 339 231 450c18 -1 49 -8 66 -15l-226 -439h185v199h73v-197h84z" />
    <glyph glyph-name="five" unicode="5" 
d="M439 65c0 -128 -89 -204 -221 -204c-40 0 -99 9 -143 25c3 24 8 51 15 73c33 -14 85 -23 128 -23c99 0 142 39 142 132c0 85 -63 127 -186 127c-37 0 -65 -1 -91 -3c4 115 18 257 30 353h316c0 -20 -2 -48 -7 -71h-249l-18 -208c152 0 284 -44 284 -201z" />
    <glyph glyph-name="six" unicode="6" 
d="M447 222c0 -150 -79 -232 -193 -232c-132 0 -201 87 -201 311c0 257 89 383 248 383c37 0 86 -5 115 -14c-1 -20 -4 -50 -11 -73c-24 8 -68 14 -104 14c-108 0 -164 -74 -172 -255h4c33 51 80 71 136 71c101 0 178 -60 178 -205zM370 221c0 106 -49 141 -114 141
c-81 0 -122 -44 -122 -148c0 -98 41 -155 116 -155c78 0 120 46 120 162z" />
    <glyph glyph-name="seven" unicode="7" 
d="M447 477c-80 -173 -215 -434 -315 -613c-25 2 -49 6 -71 15l309 595h-305c-5 23 -7 48 -7 71h389v-68z" />
    <glyph glyph-name="eight" unicode="8" 
d="M444 181c0 -124 -79 -191 -201 -191c-104 0 -188 45 -188 183c0 69 38 135 117 176c-68 38 -103 92 -103 158c0 116 76 177 182 177c108 0 178 -55 178 -167c0 -62 -38 -123 -109 -159c85 -41 124 -95 124 -177zM353 514c0 63 -38 105 -106 105s-104 -46 -104 -102
c0 -63 28 -115 111 -136c62 22 99 78 99 133zM366 181c0 71 -33 118 -126 145c-70 -22 -109 -83 -109 -148c0 -75 32 -124 116 -124c89 0 119 51 119 127z" />
    <glyph glyph-name="nine" unicode="9" 
d="M53 323c0 150 79 232 193 232c132 0 201 -87 201 -311c0 -257 -89 -383 -248 -383c-37 0 -86 5 -115 14c1 20 4 50 11 73c24 -8 68 -14 104 -14c108 0 164 74 172 255h-4c-33 -51 -80 -71 -136 -71c-101 0 -178 60 -178 205zM130 324c0 -106 49 -141 114 -141
c81 0 122 44 122 148c0 98 -41 155 -116 155c-78 0 -120 -46 -120 -162z" />
    <glyph glyph-name="colon" unicode=":" horiz-adv-x="214" 
d="M153 36c0 -31 -20 -47 -46 -47c-28 0 -46 17 -46 47c0 31 19 50 46 50c26 0 46 -19 46 -50zM153 436c0 -31 -20 -48 -46 -48c-28 0 -46 18 -46 48c0 31 19 49 46 49c26 0 46 -18 46 -49z" />
    <glyph glyph-name="semicolon" unicode=";" horiz-adv-x="214" 
d="M151 436c0 -31 -19 -48 -46 -48s-45 18 -45 48c0 31 19 49 46 49c26 0 45 -18 45 -49zM153 59c0 -78 -46 -154 -117 -232l-59 26c84 99 105 141 105 225v35h67c3 -13 4 -41 4 -54z" />
    <glyph glyph-name="less" unicode="&#x3c;" horiz-adv-x="393" 
d="M330 45h-79l-205 229l205 226h79v-8l-201 -214l201 -227v-6z" />
    <glyph glyph-name="equal" unicode="=" horiz-adv-x="490" 
d="M425 342h-360v59h360v-59zM425 152h-360v59h360v-59z" />
    <glyph glyph-name="greater" unicode="&#x3e;" horiz-adv-x="393" 
d="M330 271l-205 -226h-79v8l201 214l-201 227v6h79z" />
    <glyph glyph-name="question" unicode="?" horiz-adv-x="368" 
d="M347 507c0 -91 -56 -164 -199 -214v-104c-20 -5 -44 -8 -64 -8c-7 44 -13 107 -13 154c126 37 198 89 198 168c0 76 -42 110 -128 110c-36 0 -79 -4 -108 -12c-4 21 -7 48 -7 72c38 7 79 11 121 11c110 0 200 -54 200 -177zM161 36c0 -31 -20 -47 -47 -47s-46 17 -46 47
c0 31 20 50 47 50c26 0 46 -19 46 -50z" />
    <glyph glyph-name="at" unicode="@" horiz-adv-x="844" 
d="M780 349c0 -159 -62 -262 -159 -262c-48 0 -86 10 -104 52h-2c-41 -39 -88 -52 -132 -52c-77 0 -130 42 -130 119c0 88 55 124 146 128l110 4v110c-20 10 -60 19 -95 19c-38 0 -82 -8 -105 -18c-5 15 -9 42 -9 60c39 11 72 16 117 16c55 0 117 -12 155 -39v-295
c0 -34 20 -52 50 -52c48 0 98 43 98 210c0 192 -116 279 -289 279c-192 0 -308 -112 -308 -330c0 -203 88 -311 282 -311c41 0 106 11 138 25c6 -18 10 -43 10 -59c-38 -14 -107 -23 -150 -23c-214 0 -339 122 -339 368c0 273 168 386 370 386c200 0 346 -108 346 -335z
M509 183v105l-108 -5c-62 -3 -81 -23 -81 -73c0 -47 25 -68 76 -68c39 0 82 14 113 41z" />
    <glyph glyph-name="A" unicode="A" horiz-adv-x="568" 
d="M554 6c-24 -7 -54 -10 -81 -11l-72 215h-242l-70 -215c-24 1 -52 4 -75 11c66 215 143 443 227 668h87c78 -217 158 -453 226 -668zM380 279l-88 270c-4 15 -7 27 -8 45h-6c-1 -18 -3 -30 -7 -45l-89 -270h198z" />
    <glyph glyph-name="B" unicode="B" horiz-adv-x="584" 
d="M527 190c0 -143 -107 -199 -236 -199c-46 0 -118 5 -188 14v662c57 8 126 14 180 14c133 0 219 -50 219 -175c0 -74 -44 -126 -97 -150v-6c75 -24 122 -76 122 -160zM420 501c0 73 -46 114 -131 114c-30 0 -62 -2 -105 -6v-232h116c74 0 120 47 120 124zM440 194
c0 76 -50 120 -133 120h-123v-248c43 -5 81 -7 108 -7c97 0 148 47 148 135z" />
    <glyph glyph-name="C" unicode="C" horiz-adv-x="571" 
d="M531 34c-50 -30 -120 -44 -179 -44c-191 0 -288 120 -288 348c0 241 117 346 288 346c58 0 127 -12 165 -33c-2 -24 -10 -52 -18 -76c-41 22 -93 34 -146 34c-129 0 -199 -69 -199 -274c0 -186 61 -270 198 -270c56 0 113 14 160 45c8 -24 15 -49 19 -76z" />
    <glyph glyph-name="D" unicode="D" horiz-adv-x="685" 
d="M621 351c0 -241 -124 -360 -294 -360c-61 0 -153 4 -224 14v662c57 8 163 14 223 14c168 0 295 -96 295 -330zM530 341c0 216 -105 266 -207 266c-39 0 -91 -1 -136 -6v-529c37 -4 96 -7 135 -7c136 0 208 91 208 276z" />
    <glyph glyph-name="E" unicode="E" horiz-adv-x="548" 
d="M491 74c0 -23 -3 -50 -7 -74h-381v674h371c0 -23 -2 -50 -6 -74h-281v-210h214v-74h-214v-242h304z" />
    <glyph glyph-name="F" unicode="F" horiz-adv-x="525" 
d="M480 674c0 -24 -3 -50 -7 -74h-286v-225h234v-74h-234v-301h-84v674h377z" />
    <glyph glyph-name="G" unicode="G" horiz-adv-x="647" 
d="M559 34c-47 -24 -125 -44 -194 -44c-205 0 -301 119 -301 348c0 242 121 346 307 346c59 0 126 -10 173 -32c-3 -22 -11 -54 -18 -77c-39 20 -101 34 -152 34c-138 0 -220 -59 -220 -275c0 -209 79 -269 215 -269c29 0 75 5 106 20v182h-135c-5 21 -7 50 -7 73h226v-306z
" />
    <glyph glyph-name="H" unicode="H" horiz-adv-x="685" 
d="M582 0h-84v319h-311v-319h-84v674h84v-280h311v280h84v-674z" />
    <glyph glyph-name="I" unicode="I" horiz-adv-x="290" 
d="M187 0h-84v674h84v-674z" />
    <glyph glyph-name="J" unicode="J" horiz-adv-x="303" 
d="M199 49c0 -115 -48 -198 -177 -206c-7 24 -11 54 -11 80c74 3 104 36 104 117v634h84v-625z" />
    <glyph glyph-name="K" unicode="K" horiz-adv-x="617" 
d="M568 668l-240 -280c90 -122 161 -232 253 -383c-24 -7 -59 -10 -85 -10l-221 334l-89 -102v-227h-83v674h83v-335h4l290 340c23 0 65 -4 88 -11z" />
    <glyph glyph-name="L" unicode="L" horiz-adv-x="498" 
d="M468 75c0 -24 -3 -50 -8 -75h-357v674h84v-599h281z" />
    <glyph glyph-name="M" unicode="M" horiz-adv-x="845" 
d="M761 4c-24 -5 -55 -7 -79 -7l-42 506c-1 14 -1 40 -1 61h-6c-2 -22 -7 -46 -12 -61l-162 -503h-77l-161 503c-5 15 -9 39 -11 61h-6c0 -21 -1 -49 -2 -61l-47 -506c-22 0 -53 2 -72 7c17 222 40 444 66 670h94l163 -506c6 -19 12 -47 15 -74h7c2 27 7 55 13 75l163 505
h96c25 -225 47 -450 61 -670z" />
    <glyph glyph-name="N" unicode="N" horiz-adv-x="687" 
d="M584 674v-671c-21 -4 -53 -8 -75 -8l-295 495c-9 15 -26 51 -34 73l-6 -1c3 -25 6 -55 6 -75v-487h-77v667c26 6 63 9 87 9l283 -476c13 -21 26 -50 34 -72l6 1c-3 20 -5 55 -5 75v470h76z" />
    <glyph glyph-name="O" unicode="O" horiz-adv-x="676" 
d="M612 337c0 -236 -107 -347 -273 -347c-175 0 -275 110 -275 343c0 231 103 351 275 351c174 0 273 -112 273 -347zM522 337c0 204 -64 274 -184 274c-121 0 -184 -68 -184 -274c0 -193 54 -274 185 -274c127 0 183 77 183 274z" />
    <glyph glyph-name="P" unicode="P" horiz-adv-x="568" 
d="M511 472c0 -151 -110 -217 -229 -217h-96v-255h-83v667c73 9 120 14 184 14c122 0 224 -60 224 -209zM426 472c0 104 -64 141 -141 141c-24 0 -58 -2 -99 -6v-282h84c93 0 156 42 156 147z" />
    <glyph glyph-name="Q" unicode="Q" horiz-adv-x="676" 
d="M612 337c0 -219 -92 -329 -240 -341c2 -78 39 -114 114 -114c26 0 68 7 88 15c6 -22 9 -48 9 -73c-34 -11 -72 -15 -103 -15c-106 0 -181 50 -183 186c-152 16 -233 127 -233 338c0 230 102 351 275 351c174 0 273 -112 273 -347zM522 337c0 204 -64 274 -184 274
c-121 0 -184 -68 -184 -274c0 -192 54 -274 185 -274c127 0 183 77 183 274z" />
    <glyph glyph-name="R" unicode="R" horiz-adv-x="592" 
d="M558 7c-26 -8 -61 -11 -89 -12l-58 113c-39 77 -81 141 -118 175h-108v-283h-82v667c72 9 130 14 185 14c118 0 217 -49 217 -192c0 -93 -56 -160 -140 -182c36 -29 79 -84 117 -156zM420 486c0 92 -51 126 -135 126c-30 0 -72 -3 -100 -6v-256h89c95 0 146 44 146 136z
" />
    <glyph glyph-name="S" unicode="S" horiz-adv-x="519" 
d="M464 178c0 -112 -81 -188 -219 -188c-55 0 -126 8 -179 31c3 24 12 55 19 75c55 -24 111 -33 168 -33c83 0 127 38 127 108c0 153 -314 136 -314 329c0 119 93 184 225 184c43 0 101 -5 141 -15c0 -18 -6 -53 -13 -76c-41 11 -96 18 -138 18c-102 0 -130 -42 -130 -103
c0 -134 313 -122 313 -330z" />
    <glyph glyph-name="T" unicode="T" horiz-adv-x="491" 
d="M469 674c0 -24 -3 -50 -9 -74h-175v-600h-84v600h-178v74h446z" />
    <glyph glyph-name="U" unicode="U" horiz-adv-x="676" 
d="M574 266c0 -173 -59 -276 -237 -276c-150 0 -235 58 -235 276v408h84v-424c0 -134 34 -184 153 -184c106 0 156 53 156 184v424h79v-408z" />
    <glyph glyph-name="V" unicode="V" horiz-adv-x="581" 
d="M550 669c-64 -227 -137 -455 -217 -669h-87c-77 214 -152 444 -215 669c24 5 60 7 81 7l165 -535c5 -17 9 -37 12 -55h6c3 19 7 38 12 55l167 535c22 0 55 -2 76 -7z" />
    <glyph glyph-name="W" unicode="W" horiz-adv-x="904" 
d="M848 669c-42 -215 -100 -456 -157 -669h-88l-138 494c-5 18 -9 44 -11 71h-7c-3 -27 -8 -53 -13 -72l-139 -493h-87c-55 209 -112 452 -152 669c23 6 56 7 79 7l110 -510c4 -20 7 -44 9 -66h6c3 22 8 47 13 65l144 509h76l137 -509c6 -20 10 -44 13 -65h6
c2 21 6 46 10 65l116 512c21 0 53 -2 73 -8z" />
    <glyph glyph-name="X" unicode="X" horiz-adv-x="589" 
d="M561 5c-27 -7 -63 -10 -91 -10l-153 260c-9 15 -14 28 -21 42h-5c-6 -15 -11 -26 -20 -42l-155 -260c-25 0 -65 3 -88 10l212 342l-201 322c29 5 68 7 95 7l146 -241c8 -15 13 -27 17 -38h6c4 12 9 24 19 39l140 240c25 0 64 -2 89 -7l-196 -319z" />
    <glyph glyph-name="Y" unicode="Y" horiz-adv-x="550" 
d="M526 669c-71 -151 -131 -272 -210 -412v-257h-84v257c-79 137 -147 276 -208 412c24 5 63 7 87 7l143 -294c7 -15 14 -32 20 -50h6c6 18 12 35 20 52l144 292c25 0 57 -2 82 -7z" />
    <glyph glyph-name="Z" unicode="Z" horiz-adv-x="550" 
d="M505 74c0 -23 -3 -53 -7 -74h-446l-7 67l357 533h-337c-4 24 -6 51 -6 74h434l6 -67l-356 -533h362z" />
    <glyph glyph-name="bracketleft" unicode="[" horiz-adv-x="349" 
d="M297 -175h-189v910h189c0 -21 -2 -48 -7 -70h-107v-770h107c5 -23 7 -50 7 -70z" />
    <glyph glyph-name="backslash" unicode="\" horiz-adv-x="370" 
d="M77 684l309 -777c-18 -10 -37 -16 -61 -21l-313 785c19 7 47 13 65 13z" />
    <glyph glyph-name="bracketright" unicode="]" horiz-adv-x="349" 
d="M51 735h189v-910h-189c0 21 2 48 8 70h106v770h-106c-6 23 -8 50 -8 70z" />
    <glyph glyph-name="asciicircum" unicode="^" horiz-adv-x="492" 
d="M424 364c-19 -5 -46 -7 -69 -7l-108 265l-110 -265c-20 0 -50 2 -69 6c34 95 97 242 134 311h91c34 -67 96 -216 131 -310z" />
    <glyph glyph-name="underscore" unicode="_" 
d="M508 -139h-508v61h516c0 -19 -3 -42 -8 -61z" />
    <glyph glyph-name="grave" unicode="`" 
d="M329 579c-16 -5 -40 -7 -58 -7c-43 49 -81 108 -99 159h79z" />
    <glyph glyph-name="a" unicode="a" horiz-adv-x="531" 
d="M510 66v-22c0 -38 -25 -54 -61 -54c-42 0 -77 11 -94 54h-3c-50 -40 -97 -54 -149 -54c-89 0 -151 45 -151 140c0 110 63 151 186 157l110 5v147c-24 14 -71 23 -112 23c-44 0 -94 -9 -123 -22c-5 19 -9 49 -10 72c45 13 84 20 135 20c66 0 142 -15 185 -48v-384
c0 -24 7 -34 29 -34h58zM348 98v137l-113 -4c-78 -3 -103 -30 -103 -95c0 -57 25 -81 85 -81c45 0 97 18 131 43z" />
    <glyph glyph-name="b" unicode="b" horiz-adv-x="575" 
d="M512 278c0 -196 -86 -288 -233 -288c-68 0 -125 16 -178 54v693c20 4 55 7 78 7v-267h4c48 41 89 55 144 55c106 0 185 -68 185 -254zM429 269c0 152 -45 193 -122 193c-46 0 -89 -16 -128 -46v-331c27 -19 63 -26 98 -26c97 0 152 48 152 210z" />
    <glyph glyph-name="c" unicode="c" horiz-adv-x="475" 
d="M429 21c-36 -21 -98 -31 -136 -31c-152 0 -230 89 -230 262c0 201 99 280 218 280c40 0 98 -7 135 -22c-3 -22 -9 -51 -16 -74c-37 16 -77 22 -115 22c-85 0 -139 -46 -139 -188c0 -162 48 -206 148 -206c40 0 86 10 117 29c8 -21 15 -48 18 -72z" />
    <glyph glyph-name="d" unicode="d" horiz-adv-x="575" 
d="M397 100v340c-28 15 -71 23 -103 23c-93 0 -148 -46 -148 -208c0 -154 43 -195 123 -195c43 0 84 11 128 40zM474 0h-77v44h-4c-46 -40 -91 -54 -147 -54c-109 0 -183 74 -183 255c0 206 90 287 230 287c33 0 73 -7 104 -19v224c20 4 55 7 77 7v-744z" />
    <glyph glyph-name="e" unicode="e" horiz-adv-x="521" 
d="M462 325c0 -22 -1 -50 -3 -74h-312v-8c0 -120 35 -180 153 -180c47 0 101 15 131 33c9 -20 17 -48 21 -71c-39 -23 -104 -35 -155 -35c-153 0 -234 86 -234 264c0 196 91 278 210 278c122 0 189 -74 189 -207zM271 470c-74 0 -120 -47 -123 -164h235c1 9 1 26 1 33
c0 93 -42 131 -113 131z" />
    <glyph glyph-name="f" unicode="f" horiz-adv-x="353" 
d="M321 740c0 -22 -2 -48 -6 -71c-10 2 -32 3 -46 3c-48 0 -66 -24 -66 -78v-72h116c0 -22 -2 -45 -6 -67h-110v-455h-78v455h-64v67h64v65c0 102 73 157 149 157c15 0 33 -2 47 -4z" />
    <glyph glyph-name="g" unicode="g" horiz-adv-x="539" 
d="M493 -37c0 -107 -75 -179 -225 -179c-156 0 -204 65 -204 152c0 42 14 76 51 114c-13 21 -23 45 -28 69c9 33 32 84 56 113c-39 26 -61 73 -61 127c0 102 67 173 178 173c27 0 57 -5 79 -10h150c0 -18 -2 -39 -7 -57l-73 -5l-1 -3c22 -25 32 -57 32 -95
c0 -113 -78 -166 -173 -166c-27 0 -56 5 -73 11c-25 -31 -34 -60 -34 -74c0 -24 10 -33 30 -33h162c86 0 141 -36 141 -137zM419 -44c0 58 -21 72 -69 72h-188c-21 -21 -27 -54 -27 -75c0 -77 37 -104 135 -104c94 0 149 31 149 107zM366 365c0 79 -40 110 -105 110
c-67 0 -103 -37 -103 -110c0 -76 37 -109 103 -109s105 30 105 109z" />
    <glyph glyph-name="h" unicode="h" horiz-adv-x="584" 
d="M488 0h-77v373c0 54 -26 88 -92 88c-53 0 -96 -15 -140 -45v-416h-78v737c20 4 55 7 78 7v-271h4c51 43 99 59 158 59c82 0 147 -40 147 -157v-375z" />
    <glyph glyph-name="i" unicode="i" horiz-adv-x="279" 
d="M187 669c0 -28 -16 -49 -48 -49c-30 0 -46 22 -46 49s16 50 47 50s47 -23 47 -50zM179 0h-78v522h78v-522z" />
    <glyph glyph-name="j" unicode="j" horiz-adv-x="281" 
d="M181 -33c0 -103 -53 -174 -160 -183c-7 20 -14 51 -15 72c72 4 97 41 97 108v558h78v-555zM189 669c0 -28 -16 -49 -48 -49c-30 0 -46 22 -46 49s16 50 47 50s47 -23 47 -50z" />
    <glyph glyph-name="k" unicode="k" horiz-adv-x="512" 
d="M486 4c-19 -5 -55 -8 -81 -8l-155 259l-71 -81v-174h-78v737c20 4 55 7 78 7v-464h4l217 249c26 -2 61 -7 82 -14l-181 -202c68 -107 114 -183 185 -309z" />
    <glyph glyph-name="l" unicode="l" horiz-adv-x="280" 
d="M179 0h-78v737c20 4 55 7 78 7v-744z" />
    <glyph glyph-name="m" unicode="m" horiz-adv-x="852" 
d="M756 0h-78v373c0 53 -25 88 -88 88c-52 0 -84 -16 -123 -47v-414h-78v373c0 53 -26 88 -89 88c-44 0 -82 -16 -121 -45v-416h-78v518c20 4 55 6 78 6v-51h4c47 43 85 59 139 59c53 0 100 -19 124 -71c55 51 103 71 162 71c81 0 148 -38 148 -157v-375z" />
    <glyph glyph-name="n" unicode="n" horiz-adv-x="584" 
d="M488 0h-77v373c0 53 -25 88 -92 88c-55 0 -97 -15 -140 -45v-416h-78v518c20 4 55 6 78 6v-51h4c51 44 101 59 158 59c79 0 147 -37 147 -157v-375z" />
    <glyph glyph-name="o" unicode="o" horiz-adv-x="568" 
d="M505 261c0 -184 -97 -271 -224 -271c-131 0 -218 79 -218 271c0 174 91 271 222 271c126 0 220 -73 220 -271zM422 261c0 153 -53 203 -137 203c-79 0 -138 -43 -138 -203c0 -155 49 -203 135 -203s140 47 140 203z" />
    <glyph glyph-name="p" unicode="p" horiz-adv-x="575" 
d="M512 277c0 -202 -87 -287 -229 -287c-35 0 -71 7 -104 19v-215h-78v724c20 4 55 6 78 6v-47h4c49 42 94 55 146 55c109 0 183 -74 183 -255zM429 268c0 157 -47 194 -123 194c-45 0 -89 -15 -127 -41v-339c32 -16 70 -23 102 -23c101 0 148 56 148 209z" />
    <glyph glyph-name="q" unicode="q" horiz-adv-x="575" 
d="M474 -206h-77v250h-4c-47 -39 -94 -54 -147 -54c-108 0 -183 73 -183 255c0 200 88 287 232 287c59 0 126 -13 179 -42v-696zM397 100v342c-25 12 -67 21 -102 21c-96 0 -149 -50 -149 -208c0 -156 45 -195 123 -195c42 0 85 13 128 40z" />
    <glyph glyph-name="r" unicode="r" horiz-adv-x="380" 
d="M352 527c0 -25 -4 -56 -8 -81c-11 3 -27 5 -45 5c-36 0 -72 -6 -120 -57v-394h-78v518c20 4 55 6 78 6v-66h4c59 68 95 74 128 74c11 0 29 -1 41 -5z" />
    <glyph glyph-name="s" unicode="s" horiz-adv-x="449" 
d="M392 142c0 -105 -87 -152 -188 -152c-50 0 -108 10 -149 32c6 24 12 48 21 70c41 -21 95 -31 144 -31c65 0 90 27 90 75c0 113 -245 83 -245 240c0 102 85 156 189 156c32 0 82 -4 120 -15c0 -21 -6 -51 -12 -73c-36 13 -87 19 -129 19c-57 0 -89 -24 -89 -78
c0 -96 248 -72 248 -243z" />
    <glyph glyph-name="t" unicode="t" horiz-adv-x="384" 
d="M356 9c-26 -12 -65 -19 -93 -19c-104 0 -143 53 -143 164v301h-64v67h64v114c19 6 55 12 77 13v-127h131c0 -21 -2 -46 -5 -67h-126v-307c0 -66 19 -85 71 -85c24 0 56 6 76 16c6 -20 11 -47 12 -70z" />
    <glyph glyph-name="u" unicode="u" horiz-adv-x="582" 
d="M481 0h-78v45h-4c-51 -37 -99 -55 -157 -55c-78 0 -145 37 -145 157v372c21 3 54 6 77 6v-375c0 -54 24 -89 92 -89c54 0 97 16 137 41v417c20 3 55 6 78 6v-525z" />
    <glyph glyph-name="v" unicode="v" horiz-adv-x="498" 
d="M469 518c-52 -177 -113 -347 -180 -518h-82c-63 161 -129 349 -178 518c20 4 54 6 76 6l130 -385c6 -19 11 -38 14 -61h4c4 24 8 43 15 63l127 383c24 0 53 -2 74 -6z" />
    <glyph glyph-name="w" unicode="w" horiz-adv-x="788" 
d="M735 518c-33 -177 -75 -347 -129 -518h-78l-120 369c-6 18 -11 40 -14 65h-5c-3 -25 -8 -47 -14 -66l-118 -368h-78c-50 162 -94 344 -126 518c20 4 52 6 74 6l84 -370c5 -21 9 -47 11 -70h4c4 23 9 49 16 72l116 366h74l118 -367c6 -20 12 -44 16 -71h5c3 26 6 47 12 72
l82 368c23 0 50 -2 70 -6z" />
    <glyph glyph-name="x" unicode="x" horiz-adv-x="503" 
d="M474 4c-24 -5 -64 -8 -89 -8l-118 191c-8 13 -12 22 -17 37h-4c-5 -15 -10 -25 -18 -38l-115 -190c-25 0 -62 3 -84 8l172 272l-161 242c25 5 62 7 88 7l107 -174c7 -11 13 -24 18 -38h4c5 14 11 28 18 39l106 173c25 0 59 -2 84 -7l-164 -251z" />
    <glyph glyph-name="y" unicode="y" horiz-adv-x="510" 
d="M481 518l-176 -509c-55 -158 -117 -225 -209 -225c-24 0 -59 3 -89 19c3 25 9 53 17 72c20 -10 50 -16 77 -16c41 0 69 22 90 71l30 70c-63 150 -134 348 -180 518c21 4 54 7 76 7l125 -384c6 -19 13 -41 16 -62h4c4 21 10 43 17 63l126 383c20 0 55 -2 76 -7z" />
    <glyph glyph-name="z" unicode="z" horiz-adv-x="469" 
d="M424 0h-378l-8 63l286 392h-261c-3 23 -5 48 -5 67h349l8 -63l-286 -392h285c6 -22 10 -46 10 -67z" />
    <glyph glyph-name="braceleft" unicode="{" horiz-adv-x="328" 
d="M281 -109c0 -23 -3 -52 -7 -71c-153 0 -218 44 -218 126c0 87 114 172 114 236c0 41 -23 62 -123 62v74c100 0 123 21 123 62c0 64 -114 148 -114 235c0 80 85 125 219 125c3 -19 6 -48 6 -70c-100 0 -146 -17 -146 -63c0 -56 111 -149 111 -223c0 -50 -21 -82 -100 -100
v-5c78 -15 100 -51 100 -101c0 -74 -111 -169 -111 -225c0 -45 43 -62 146 -62z" />
    <glyph glyph-name="bar" unicode="|" horiz-adv-x="260" 
d="M162 -206h-64v938h64v-938z" />
    <glyph glyph-name="braceright" unicode="}" horiz-adv-x="328" 
d="M281 243c-100 0 -123 -21 -123 -62c0 -64 114 -148 114 -235c0 -80 -85 -125 -219 -125c-4 19 -6 48 -6 70c100 0 146 17 146 63c0 56 -111 149 -111 223c0 50 21 82 99 100v5c-77 15 -99 51 -99 101c0 74 111 169 111 225c0 45 -44 62 -146 62c0 23 3 52 7 71
c153 0 218 -44 218 -126c0 -87 -114 -172 -114 -236c0 -41 23 -62 123 -62v-74z" />
    <glyph glyph-name="asciitilde" unicode="~" horiz-adv-x="494" 
d="M465 342c-23 -119 -59 -151 -113 -151c-70 0 -158 96 -205 96c-30 0 -42 -26 -53 -97c-17 0 -48 6 -65 13c22 123 60 153 112 153c68 0 158 -96 206 -96c28 0 42 25 53 96c17 0 51 -6 65 -14z" />
    <glyph glyph-name="Adieresis" unicode="&#xc4;" horiz-adv-x="568" 
d="M240 756c0 -25 -17 -42 -45 -42c-27 0 -44 18 -44 42c0 25 17 43 45 43c27 0 44 -18 44 -43zM417 756c0 -25 -17 -42 -45 -42c-27 0 -43 18 -43 42c0 25 16 43 44 43c27 0 44 -18 44 -43zM554 6c-24 -7 -54 -10 -81 -11l-72 215h-242l-70 -215c-24 1 -52 4 -75 11
c66 215 143 443 227 668h87c78 -217 158 -453 226 -668zM380 279l-88 270c-4 15 -7 27 -8 45h-6c-1 -18 -3 -30 -7 -45l-89 -270h198z" />
    <glyph glyph-name="Aring" unicode="&#xc5;" horiz-adv-x="568" 
d="M554 6c-24 -7 -54 -10 -81 -11l-72 215h-242l-70 -215c-24 1 -52 4 -75 11c64 211 139 430 223 659c-43 11 -65 43 -65 87c0 55 41 94 114 94c72 0 111 -35 111 -94c0 -43 -25 -74 -66 -87c78 -217 157 -452 223 -659zM380 279l-88 270c-4 12 -7 28 -8 45h-6
c-1 -17 -3 -33 -7 -45l-89 -270h198zM339 753c0 33 -20 51 -53 51c-31 0 -55 -16 -55 -51c0 -34 17 -52 53 -52c32 0 55 16 55 52z" />
    <glyph glyph-name="Ccedilla" unicode="&#xc7;" horiz-adv-x="571" 
d="M531 34c-50 -30 -120 -44 -179 -44c-191 0 -288 120 -288 348c0 241 117 346 288 346c58 0 127 -12 165 -33c-2 -24 -10 -52 -18 -76c-41 22 -93 34 -146 34c-129 0 -199 -69 -199 -274c0 -186 61 -270 198 -270c56 0 113 14 160 45c8 -24 15 -49 19 -76zM425 -120
c0 -61 -42 -97 -128 -97c-17 0 -43 3 -62 7c-4 18 -5 38 -5 54c20 -6 46 -8 62 -8c39 0 68 9 68 46c0 33 -22 45 -61 45c-12 0 -32 -2 -44 -4c1 13 7 35 12 46h53c70 0 105 -33 105 -89z" />
    <glyph glyph-name="Eacute" unicode="&#xc9;" horiz-adv-x="548" 
d="M367 815c-20 -40 -44 -70 -88 -109c-13 0 -54 5 -65 7l71 102h82zM491 74c0 -23 -3 -50 -7 -74h-381v674h371c0 -23 -2 -50 -6 -74h-281v-210h214v-74h-214v-242h304z" />
    <glyph glyph-name="Ntilde" unicode="&#xd1;" horiz-adv-x="687" 
d="M191 714c16 80 46 97 89 97s100 -46 133 -46c22 0 35 5 42 54c15 -1 40 -6 54 -11c-14 -83 -46 -98 -88 -98c-43 0 -103 46 -135 46c-24 0 -36 -11 -41 -53c-14 0 -38 4 -54 11zM584 674v-671c-21 -4 -53 -8 -75 -8l-295 495c-9 15 -26 51 -34 73l-6 -1
c3 -25 6 -55 6 -75v-487h-77v667c26 6 63 9 87 9l283 -476c13 -21 26 -50 34 -72l6 1c-3 20 -5 55 -5 75v470h76z" />
    <glyph glyph-name="Odieresis" unicode="&#xd6;" horiz-adv-x="676" 
d="M293 756c0 -25 -17 -42 -45 -42c-27 0 -44 18 -44 42c0 25 17 43 45 43c27 0 44 -18 44 -43zM470 756c0 -25 -17 -42 -45 -42c-27 0 -43 18 -43 42c0 25 16 43 44 43c27 0 44 -18 44 -43zM612 337c0 -236 -107 -347 -273 -347c-175 0 -275 110 -275 343
c0 231 103 351 275 351c174 0 273 -112 273 -347zM522 337c0 204 -64 274 -184 274c-121 0 -184 -68 -184 -274c0 -193 54 -274 185 -274c127 0 183 77 183 274z" />
    <glyph glyph-name="Udieresis" unicode="&#xdc;" horiz-adv-x="676" 
d="M302 756c0 -25 -17 -42 -45 -42c-27 0 -44 18 -44 42c0 25 17 43 45 43c27 0 44 -18 44 -43zM479 756c0 -25 -17 -42 -45 -42c-27 0 -43 18 -43 42c0 25 16 43 44 43c27 0 44 -18 44 -43zM574 266c0 -173 -59 -276 -237 -276c-150 0 -235 58 -235 276v408h84v-424
c0 -134 34 -184 153 -184c106 0 156 53 156 184v424h79v-408z" />
    <glyph glyph-name="aacute" unicode="&#xe1;" horiz-adv-x="531" 
d="M510 66v-22c0 -38 -25 -54 -61 -54c-42 0 -77 11 -94 54h-3c-50 -40 -97 -54 -149 -54c-89 0 -151 45 -151 140c0 110 63 151 186 157l110 5v147c-24 14 -71 23 -112 23c-44 0 -94 -9 -123 -22c-5 19 -9 49 -10 72c45 13 84 20 135 20c66 0 142 -15 185 -48v-384
c0 -24 7 -34 29 -34h58zM348 98v137l-113 -4c-78 -3 -103 -30 -103 -95c0 -57 25 -81 85 -81c45 0 97 18 131 43zM359 731c-18 -51 -56 -110 -98 -159c-18 0 -43 2 -58 7l78 152h78z" />
    <glyph glyph-name="agrave" unicode="&#xe0;" horiz-adv-x="531" 
d="M510 66v-22c0 -38 -25 -54 -61 -54c-42 0 -77 11 -94 54h-3c-50 -40 -97 -54 -149 -54c-89 0 -151 45 -151 140c0 110 63 151 186 157l110 5v147c-24 14 -71 23 -112 23c-44 0 -94 -9 -123 -22c-5 19 -9 49 -10 72c45 13 84 20 135 20c66 0 142 -15 185 -48v-384
c0 -24 7 -34 29 -34h58zM348 98v137l-113 -4c-78 -3 -103 -30 -103 -95c0 -57 25 -81 85 -81c45 0 97 18 131 43zM299 579c-16 -5 -40 -7 -58 -7c-43 49 -81 108 -99 159h79z" />
    <glyph glyph-name="acircumflex" unicode="&#xe2;" horiz-adv-x="531" 
d="M510 66v-22c0 -38 -25 -54 -61 -54c-42 0 -77 11 -94 54h-3c-50 -40 -97 -54 -149 -54c-89 0 -151 45 -151 140c0 110 63 151 186 157l110 5v147c-24 14 -71 23 -112 23c-44 0 -94 -9 -123 -22c-5 19 -9 49 -10 72c45 13 84 20 135 20c66 0 142 -15 185 -48v-384
c0 -24 7 -34 29 -34h58zM348 98v137l-113 -4c-78 -3 -103 -30 -103 -95c0 -57 25 -81 85 -81c45 0 97 18 131 43zM410 578c-20 -4 -44 -6 -66 -6l-81 112l-81 -112c-19 0 -45 2 -64 5c33 58 64 104 100 154h92c37 -50 69 -97 100 -153z" />
    <glyph glyph-name="adieresis" unicode="&#xe4;" horiz-adv-x="531" 
d="M510 66v-22c0 -38 -25 -54 -61 -54c-42 0 -77 11 -94 54h-3c-50 -40 -97 -54 -149 -54c-89 0 -151 45 -151 140c0 110 63 151 186 157l110 5v147c-24 14 -71 23 -112 23c-44 0 -94 -9 -123 -22c-5 19 -9 49 -10 72c45 13 84 20 135 20c66 0 142 -15 185 -48v-384
c0 -24 7 -34 29 -34h58zM348 98v137l-113 -4c-78 -3 -103 -30 -103 -95c0 -57 25 -81 85 -81c45 0 97 18 131 43zM217 633c0 -27 -17 -47 -45 -47s-45 21 -45 47c0 27 17 49 46 49c28 0 44 -22 44 -49zM392 633c0 -27 -17 -47 -45 -47s-44 21 -44 47c0 27 16 49 45 49
c28 0 44 -22 44 -49z" />
    <glyph glyph-name="atilde" unicode="&#xe3;" horiz-adv-x="531" 
d="M510 66v-22c0 -38 -25 -54 -61 -54c-42 0 -77 11 -94 54h-3c-50 -40 -97 -54 -149 -54c-89 0 -151 45 -151 140c0 110 63 151 186 157l110 5v147c-24 14 -71 23 -112 23c-44 0 -94 -9 -123 -22c-5 19 -9 49 -10 72c45 13 84 20 135 20c66 0 142 -15 185 -48v-384
c0 -24 7 -34 29 -34h58zM348 98v137l-113 -4c-78 -3 -103 -30 -103 -95c0 -57 25 -81 85 -81c45 0 97 18 131 43zM94 583c20 98 52 112 98 112c17 0 34 -5 51 -14l53 -30c14 -8 25 -11 35 -11c24 0 34 8 44 63c16 0 40 -5 58 -13c-20 -95 -50 -112 -97 -112
c-16 0 -33 3 -52 14l-52 29c-14 8 -26 12 -36 12c-26 0 -35 -9 -45 -63c-16 0 -40 5 -57 13z" />
    <glyph glyph-name="aring" unicode="&#xe5;" horiz-adv-x="531" 
d="M510 66v-22c0 -38 -25 -54 -61 -54c-42 0 -77 11 -94 54h-3c-50 -40 -97 -54 -149 -54c-89 0 -151 45 -151 140c0 110 63 151 186 157l110 5v147c-24 14 -71 23 -112 23c-44 0 -94 -9 -123 -22c-5 19 -9 49 -10 72c45 13 84 20 135 20c66 0 142 -15 185 -48v-384
c0 -24 7 -34 29 -34h58zM348 98v137l-113 -4c-78 -3 -103 -30 -103 -95c0 -57 25 -81 85 -81c45 0 97 18 131 43zM368 669c0 -58 -42 -99 -111 -99c-76 0 -113 40 -113 99c0 58 40 101 113 101s111 -39 111 -101zM310 671c0 35 -20 55 -53 55c-31 0 -55 -18 -55 -55
s18 -58 53 -58c32 0 55 19 55 58z" />
    <glyph glyph-name="ccedilla" unicode="&#xe7;" horiz-adv-x="475" 
d="M429 21c-36 -21 -98 -31 -136 -31c-152 0 -230 89 -230 262c0 201 99 280 218 280c40 0 98 -7 135 -22c-3 -22 -9 -51 -16 -74c-37 16 -77 22 -115 22c-85 0 -139 -46 -139 -188c0 -162 48 -206 148 -206c40 0 86 10 117 29c8 -21 15 -48 18 -72zM364 -120
c0 -61 -42 -97 -128 -97c-17 0 -43 3 -62 7c-4 18 -5 38 -5 54c20 -6 46 -8 62 -8c39 0 68 9 68 46c0 33 -22 45 -61 45c-12 0 -32 -2 -44 -4c1 13 7 35 12 46h53c70 0 105 -33 105 -89z" />
    <glyph glyph-name="eacute" unicode="&#xe9;" horiz-adv-x="521" 
d="M462 325c0 -22 -1 -50 -3 -74h-312v-8c0 -120 35 -180 153 -180c47 0 101 15 131 33c9 -20 17 -48 21 -71c-39 -23 -104 -35 -155 -35c-153 0 -234 86 -234 264c0 196 91 278 210 278c122 0 189 -74 189 -207zM271 470c-74 0 -120 -47 -123 -164h235c1 9 1 26 1 33
c0 93 -42 131 -113 131zM395 731c-18 -51 -56 -110 -98 -159c-18 0 -43 2 -58 7l78 152h78z" />
    <glyph glyph-name="egrave" unicode="&#xe8;" horiz-adv-x="521" 
d="M462 325c0 -22 -1 -50 -3 -74h-312v-8c0 -120 35 -180 153 -180c47 0 101 15 131 33c9 -20 17 -48 21 -71c-39 -23 -104 -35 -155 -35c-153 0 -234 86 -234 264c0 196 91 278 210 278c122 0 189 -74 189 -207zM271 470c-74 0 -120 -47 -123 -164h235c1 9 1 26 1 33
c0 93 -42 131 -113 131zM310 579c-16 -5 -40 -7 -58 -7c-43 49 -81 108 -99 159h79z" />
    <glyph glyph-name="ecircumflex" unicode="&#xea;" horiz-adv-x="521" 
d="M462 325c0 -22 -1 -50 -3 -74h-312v-8c0 -120 35 -180 153 -180c47 0 101 15 131 33c9 -20 17 -48 21 -71c-39 -23 -104 -35 -155 -35c-153 0 -234 86 -234 264c0 196 91 278 210 278c122 0 189 -74 189 -207zM271 470c-74 0 -120 -47 -123 -164h235c1 9 1 26 1 33
c0 93 -42 131 -113 131zM417 578c-20 -4 -44 -6 -66 -6l-81 112l-81 -112c-19 0 -45 2 -64 5c33 58 64 104 100 154h92c37 -50 69 -97 100 -153z" />
    <glyph glyph-name="edieresis" unicode="&#xeb;" horiz-adv-x="521" 
d="M462 325c0 -22 -1 -50 -3 -74h-312v-8c0 -120 35 -180 153 -180c47 0 101 15 131 33c9 -20 17 -48 21 -71c-39 -23 -104 -35 -155 -35c-153 0 -234 86 -234 264c0 196 91 278 210 278c122 0 189 -74 189 -207zM271 470c-74 0 -120 -47 -123 -164h235c1 9 1 26 1 33
c0 93 -42 131 -113 131zM230 633c0 -27 -17 -47 -45 -47s-45 21 -45 47c0 27 17 49 46 49c28 0 44 -22 44 -49zM405 633c0 -27 -17 -47 -45 -47s-44 21 -44 47c0 27 16 49 45 49c28 0 44 -22 44 -49z" />
    <glyph glyph-name="iacute" unicode="&#xed;" horiz-adv-x="279" 
d="M179 0h-78v522h78v-522zM264 731c-18 -51 -56 -110 -98 -159c-18 0 -43 2 -58 7l78 152h78z" />
    <glyph glyph-name="igrave" unicode="&#xec;" horiz-adv-x="279" 
d="M179 0h-78v522h78v-522zM173 579c-16 -5 -40 -7 -58 -7c-43 49 -81 108 -99 159h79z" />
    <glyph glyph-name="icircumflex" unicode="&#xee;" horiz-adv-x="279" 
d="M286 578c-20 -4 -44 -6 -66 -6l-81 112l-81 -112c-19 0 -45 2 -64 5c33 58 64 104 100 154h92c37 -50 69 -97 100 -153zM179 0h-78v522h78v-522z" />
    <glyph glyph-name="idieresis" unicode="&#xef;" horiz-adv-x="279" 
d="M179 0h-78v522h78v-522zM97 633c0 -27 -17 -47 -45 -47s-45 21 -45 47c0 27 17 49 46 49c28 0 44 -22 44 -49zM272 633c0 -27 -17 -47 -45 -47s-44 21 -44 47c0 27 16 49 45 49c28 0 44 -22 44 -49z" />
    <glyph glyph-name="ntilde" unicode="&#xf1;" horiz-adv-x="584" 
d="M488 0h-77v373c0 53 -25 88 -92 88c-55 0 -97 -15 -140 -45v-416h-78v518c20 4 55 6 78 6v-51h4c51 44 101 59 158 59c79 0 147 -37 147 -157v-375zM133 583c20 98 52 112 98 112c17 0 34 -5 51 -14l53 -30c14 -8 25 -11 35 -11c24 0 34 8 44 63c16 0 40 -5 58 -13
c-20 -95 -50 -112 -97 -112c-16 0 -33 3 -52 14l-52 29c-14 8 -26 12 -36 12c-26 0 -35 -9 -45 -63c-16 0 -40 5 -57 13z" />
    <glyph glyph-name="oacute" unicode="&#xf3;" horiz-adv-x="568" 
d="M505 261c0 -184 -97 -271 -224 -271c-131 0 -218 79 -218 271c0 174 91 271 222 271c126 0 220 -73 220 -271zM422 261c0 153 -53 203 -137 203c-79 0 -138 -43 -138 -203c0 -155 49 -203 135 -203s140 47 140 203zM403 731c-18 -51 -56 -110 -98 -159c-18 0 -43 2 -58 7
l78 152h78z" />
    <glyph glyph-name="ograve" unicode="&#xf2;" horiz-adv-x="568" 
d="M505 261c0 -184 -97 -271 -224 -271c-131 0 -218 79 -218 271c0 174 91 271 222 271c126 0 220 -73 220 -271zM422 261c0 153 -53 203 -137 203c-79 0 -138 -43 -138 -203c0 -155 49 -203 135 -203s140 47 140 203zM322 579c-16 -5 -40 -7 -58 -7c-43 49 -81 108 -99 159
h79z" />
    <glyph glyph-name="ocircumflex" unicode="&#xf4;" horiz-adv-x="568" 
d="M505 261c0 -184 -97 -271 -224 -271c-131 0 -218 79 -218 271c0 174 91 271 222 271c126 0 220 -73 220 -271zM422 261c0 153 -53 203 -137 203c-79 0 -138 -43 -138 -203c0 -155 49 -203 135 -203s140 47 140 203zM430 578c-20 -4 -44 -6 -66 -6l-81 112l-81 -112
c-19 0 -45 2 -64 5c33 58 64 104 100 154h92c37 -50 69 -97 100 -153z" />
    <glyph glyph-name="odieresis" unicode="&#xf6;" horiz-adv-x="568" 
d="M505 261c0 -184 -97 -271 -224 -271c-131 0 -218 79 -218 271c0 174 91 271 222 271c126 0 220 -73 220 -271zM422 261c0 153 -53 203 -137 203c-79 0 -138 -43 -138 -203c0 -155 49 -203 135 -203s140 47 140 203zM242 633c0 -27 -17 -47 -45 -47s-45 21 -45 47
c0 27 17 49 46 49c28 0 44 -22 44 -49zM417 633c0 -27 -17 -47 -45 -47s-44 21 -44 47c0 27 16 49 45 49c28 0 44 -22 44 -49z" />
    <glyph glyph-name="otilde" unicode="&#xf5;" horiz-adv-x="568" 
d="M505 261c0 -184 -97 -271 -224 -271c-131 0 -218 79 -218 271c0 174 91 271 222 271c126 0 220 -73 220 -271zM422 261c0 153 -53 203 -137 203c-79 0 -138 -43 -138 -203c0 -155 49 -203 135 -203s140 47 140 203zM114 583c20 98 52 112 98 112c17 0 34 -5 51 -14
l53 -30c14 -8 25 -11 35 -11c24 0 34 8 44 63c16 0 40 -5 58 -13c-20 -95 -50 -112 -97 -112c-16 0 -33 3 -52 14l-52 29c-14 8 -26 12 -36 12c-26 0 -35 -9 -45 -63c-16 0 -40 5 -57 13z" />
    <glyph glyph-name="uacute" unicode="&#xfa;" horiz-adv-x="582" 
d="M481 0h-78v45h-4c-51 -37 -99 -55 -157 -55c-78 0 -145 37 -145 157v372c21 3 54 6 77 6v-375c0 -54 24 -89 92 -89c54 0 97 16 137 41v417c20 3 55 6 78 6v-525zM410 731c-18 -51 -56 -110 -98 -159c-18 0 -43 2 -58 7l78 152h78z" />
    <glyph glyph-name="ugrave" unicode="&#xf9;" horiz-adv-x="582" 
d="M481 0h-78v45h-4c-51 -37 -99 -55 -157 -55c-78 0 -145 37 -145 157v372c21 3 54 6 77 6v-375c0 -54 24 -89 92 -89c54 0 97 16 137 41v417c20 3 55 6 78 6v-525zM332 579c-16 -5 -40 -7 -58 -7c-43 49 -81 108 -99 159h79z" />
    <glyph glyph-name="ucircumflex" unicode="&#xfb;" horiz-adv-x="582" 
d="M481 0h-78v45h-4c-51 -37 -99 -55 -157 -55c-78 0 -145 37 -145 157v372c21 3 54 6 77 6v-375c0 -54 24 -89 92 -89c54 0 97 16 137 41v417c20 3 55 6 78 6v-525zM435 578c-20 -4 -44 -6 -66 -6l-81 112l-81 -112c-19 0 -45 2 -64 5c33 58 64 104 100 154h92
c37 -50 69 -97 100 -153z" />
    <glyph glyph-name="udieresis" unicode="&#xfc;" horiz-adv-x="582" 
d="M481 0h-78v45h-4c-51 -37 -99 -55 -157 -55c-78 0 -145 37 -145 157v372c21 3 54 6 77 6v-375c0 -54 24 -89 92 -89c54 0 97 16 137 41v417c20 3 55 6 78 6v-525zM247 633c0 -27 -17 -47 -45 -47s-45 21 -45 47c0 27 17 49 46 49c28 0 44 -22 44 -49zM422 633
c0 -27 -17 -47 -45 -47s-44 21 -44 47c0 27 16 49 45 49c28 0 44 -22 44 -49z" />
    <glyph glyph-name="dagger" unicode="&#x2020;" horiz-adv-x="523" 
d="M472 291h-173v-420c-21 -6 -51 -9 -75 -9v429h-173v71h173v183h75v-183h173v-71z" />
    <glyph glyph-name="degree" unicode="&#xb0;" horiz-adv-x="324" 
d="M289 551c0 -75 -50 -130 -127 -130c-82 0 -127 51 -127 128c0 76 51 129 127 129c78 0 127 -50 127 -127zM219 551c0 38 -23 65 -57 65c-35 0 -56 -27 -56 -65c0 -37 19 -66 56 -66s57 27 57 66z" />
    <glyph glyph-name="cent" unicode="&#xa2;" 
d="M461 100c-31 -18 -80 -28 -117 -31l3 -69h-76l3 70c-132 15 -212 100 -212 257c0 183 99 262 212 274l-3 73h76l-3 -72c36 -3 76 -9 104 -20c-3 -23 -9 -49 -16 -72c-36 15 -83 22 -122 22c-88 0 -169 -45 -169 -187c0 -162 73 -205 178 -205c41 0 93 11 126 30
c7 -21 13 -46 16 -70z" />
    <glyph glyph-name="sterling" unicode="&#xa3;" 
d="M479 70c0 -21 -3 -47 -8 -70h-383v64c59 18 90 60 90 129c0 37 -22 84 -42 135h-82v58h57c-13 35 -21 71 -21 98c0 119 77 200 209 200c43 0 101 -3 142 -14c0 -18 -5 -50 -12 -74c-32 10 -91 17 -131 17c-91 0 -128 -45 -128 -130c0 -25 10 -62 24 -97h232
c0 -17 -4 -40 -8 -58h-197c19 -43 38 -91 38 -132c0 -55 -24 -95 -65 -126h285z" />
    <glyph glyph-name="section" unicode="&#xa7;" horiz-adv-x="499" 
d="M456 294c0 -60 -38 -116 -106 -152c-19 11 -34 27 -46 44c61 30 78 64 78 97c0 136 -288 88 -288 257c0 84 79 144 192 144c31 0 79 -4 116 -13c-1 -19 -6 -52 -11 -69c-39 11 -81 17 -126 17c-59 0 -98 -27 -98 -72c0 -112 289 -76 289 -253zM43 251
c0 60 38 117 107 152c18 -11 33 -27 46 -44c-61 -30 -79 -64 -79 -97c0 -136 288 -88 288 -257c0 -84 -79 -144 -191 -144c-31 0 -79 4 -117 13c1 19 6 52 11 69c39 -11 81 -17 127 -17c59 0 98 27 98 72c0 112 -290 76 -290 253z" />
    <glyph glyph-name="bullet" unicode="&#x2022;" horiz-adv-x="351" 
d="M273 277c0 -60 -43 -99 -98 -99c-56 0 -97 39 -97 99c0 61 41 102 97 102c55 0 98 -41 98 -102z" />
    <glyph glyph-name="paragraph" unicode="&#xb6;" 
d="M437 662v-538c0 -122 -32 -197 -138 -263l-33 41c96 59 117 126 117 221v497c-17 5 -59 10 -83 10v-507c0 -80 -17 -119 -80 -160l-31 40c43 26 56 59 56 110v117h-21c-107 0 -187 61 -187 213c0 173 120 241 237 241c56 0 111 -6 163 -22z" />
    <glyph glyph-name="germandbls" unicode="&#xdf;" horiz-adv-x="543" 
d="M505 121c0 -84 -63 -131 -148 -131c-44 0 -89 8 -131 30c4 26 10 48 21 69c32 -20 75 -31 104 -31c50 0 75 18 75 65c0 86 -166 116 -166 236c0 108 123 157 123 233c0 58 -29 84 -94 84c-101 0 -120 -45 -120 -132v-544h-75v546c0 129 75 198 197 198
c101 0 172 -45 172 -140c0 -108 -126 -158 -126 -237c0 -88 168 -123 168 -246z" />
    <glyph glyph-name="registered" unicode="&#xae;" horiz-adv-x="725" 
d="M658 338c0 -191 -124 -316 -296 -316c-171 0 -295 123 -295 316c0 186 123 313 295 313c166 0 296 -120 296 -313zM618 335c0 169 -107 280 -256 280c-160 0 -256 -113 -256 -280c0 -162 101 -278 256 -278s256 109 256 278zM469 229l41 -81c-19 -5 -42 -5 -62 -6l-29 59
c-22 43 -45 77 -63 94h-55v-151h-58v375c44 5 82 7 115 7c68 0 124 -29 124 -109c0 -52 -32 -89 -75 -102c21 -18 43 -48 62 -86zM422 413c0 45 -26 65 -68 65c-16 0 -38 -2 -53 -3v-132h46c46 0 75 22 75 70z" />
    <glyph glyph-name="copyright" unicode="&#xa9;" horiz-adv-x="725" 
d="M658 338c0 -191 -124 -316 -296 -316c-171 0 -295 123 -295 316c0 186 123 313 295 313c166 0 296 -120 296 -313zM484 162c-28 -17 -74 -24 -108 -24c-110 0 -170 68 -170 196c0 135 72 194 168 194c35 0 81 -7 103 -18c-1 -16 -5 -38 -9 -55c-24 12 -59 19 -92 19
c-66 0 -106 -34 -106 -140c0 -100 35 -142 107 -142c34 0 73 10 98 25c5 -16 9 -35 9 -55zM618 335c0 169 -107 280 -256 280c-160 0 -256 -113 -256 -280c0 -162 101 -278 256 -278s256 109 256 278z" />
    <glyph glyph-name="trademark" unicode="&#x2122;" horiz-adv-x="760" 
d="M706 327c-13 -2 -38 -4 -52 -4l-21 232c-1 8 -2 27 -2 34h-4c-2 -13 -5 -24 -8 -32l-88 -232h-56l-87 232c-2 7 -7 22 -7 32h-4c0 -5 -1 -25 -2 -34l-26 -232c-12 0 -37 2 -47 4c8 116 23 230 39 347h59l96 -255c3 -9 6 -20 8 -31h4c2 11 5 22 8 31l95 255h60
c16 -116 28 -236 35 -347zM278 674c0 -10 0 -36 -5 -51h-93v-298h-57v298h-96v51h251z" />
    <glyph glyph-name="acute" unicode="&#xb4;" 
d="M328 731c-18 -51 -56 -110 -98 -159c-18 0 -43 2 -58 7l78 152h78z" />
    <glyph glyph-name="dieresis" unicode="&#xa8;" 
d="M207 633c0 -27 -17 -47 -45 -47s-45 21 -45 47c0 27 17 49 46 49c28 0 44 -22 44 -49zM382 633c0 -27 -17 -47 -45 -47s-44 21 -44 47c0 27 16 49 45 49c28 0 44 -22 44 -49z" />
    <glyph glyph-name="notequal" unicode="&#x2260;" horiz-adv-x="490" 
d="M425 152h-235l-78 -119h-46l77 119h-78v59h118l85 131h-203v59h242l70 107h48l-70 -107h70v-59h-110l-86 -131h196v-59z" />
    <glyph glyph-name="AE" unicode="&#xc6;" horiz-adv-x="815" 
d="M374 300v304h-6l-159 -304h165zM758 74c0 -23 -3 -50 -6 -74h-378v230h-198l-127 -236c-24 1 -58 6 -81 12c119 232 235 443 366 668h408c0 -22 -3 -50 -6 -74h-281v-210h214v-74h-214v-242h303z" />
    <glyph glyph-name="Oslash" unicode="&#xd8;" horiz-adv-x="676" 
d="M612 337c0 -236 -107 -347 -273 -347c-59 0 -110 13 -151 38l-47 -89h-45l60 113c-60 56 -92 148 -92 281c0 231 103 351 275 351c52 0 98 -11 136 -31l42 79h46l-54 -102c67 -54 103 -151 103 -293zM522 337c0 107 -18 177 -52 220l-245 -460c28 -23 66 -34 114 -34
c127 0 183 77 183 274zM154 337c0 -96 13 -164 43 -209l242 457c-28 18 -61 26 -101 26c-121 0 -184 -68 -184 -274z" />
    <glyph glyph-name="infinity" unicode="&#x221e;" horiz-adv-x="881" 
d="M239 53c-122 0 -189 82 -189 215c0 115 61 204 192 204c72 0 137 -32 199 -136c64 103 124 136 203 136c120 0 187 -81 187 -209s-67 -210 -187 -210c-73 0 -138 29 -205 135c-54 -93 -116 -135 -200 -135zM644 120c76 0 115 52 115 145c0 96 -48 140 -118 140
c-74 0 -123 -42 -171 -141c51 -105 109 -144 174 -144zM245 120c73 0 129 55 165 143c-44 92 -95 142 -166 142c-83 0 -122 -48 -122 -142c0 -90 35 -143 123 -143z" />
    <glyph glyph-name="plusminus" unicode="&#xb1;" horiz-adv-x="441" 
d="M381 315h-132v-132h-59v132h-130v57h130v128h59v-128h132v-57zM381 45h-321v58h321v-58z" />
    <glyph glyph-name="lessequal" unicode="&#x2264;" horiz-adv-x="440" 
d="M355 147h-80l-192 176l192 177h79v-8l-190 -165l191 -172v-8zM380 45h-320v58h320v-58z" />
    <glyph glyph-name="greaterequal" unicode="&#x2265;" horiz-adv-x="440" 
d="M357 323l-192 -176h-79v7l189 167l-190 171v8h80zM380 45h-320v58h320v-58z" />
    <glyph glyph-name="yen" unicode="&#xa5;" 
d="M437 296c0 -18 -3 -41 -8 -60h-139v-236h-83v236h-147v60h126c-62 119 -115 239 -169 374c25 5 62 7 85 7l128 -298c7 -16 15 -39 21 -58h5c5 19 13 43 20 60l128 296c25 0 54 -2 79 -7c-60 -143 -107 -251 -172 -374h126z" />
    <glyph glyph-name="mu" unicode="&#xb5;" horiz-adv-x="586" 
d="M485 0h-78v45h-4c-49 -36 -95 -55 -151 -55c-27 0 -53 4 -73 27v-223h-78v725c21 3 55 6 78 6v-375c0 -55 24 -89 91 -89c54 0 95 15 137 41v417c21 3 55 6 78 6v-525z" />
    <glyph glyph-name="partialdiff" unicode="&#x2202;" horiz-adv-x="549" 
d="M494 370c0 -258 -66 -380 -218 -380c-138 0 -220 72 -220 260c0 180 92 273 232 273c35 0 81 -6 118 -17c-14 129 -65 169 -172 169c-43 0 -103 -11 -135 -26c0 26 3 55 5 71c40 18 99 24 135 24c150 0 255 -61 255 -374zM414 337c0 35 -2 70 -4 99
c-32 12 -78 19 -117 19c-89 0 -154 -50 -154 -198c0 -150 41 -198 136 -198s139 55 139 278z" />
    <glyph glyph-name="summation" unicode="&#x2211;" horiz-adv-x="558" 
d="M144 73h340c0 -20 -3 -47 -7 -73h-439v68l275 282l-256 256v68h410c0 -24 -2 -53 -6 -74h-294l219 -224v-56z" />
    <glyph glyph-name="product" unicode="&#x220f;" horiz-adv-x="701" 
d="M592 0h-84v597h-315v-597h-84v674h483v-674z" />
    <glyph glyph-name="pi" unicode="&#x3c0;" horiz-adv-x="644" 
d="M623 8c-25 -12 -57 -18 -86 -18c-84 0 -117 45 -117 123v334h-215v-447h-75v447h-98v75h587c0 -21 -3 -54 -6 -75h-118v-328c0 -46 16 -60 51 -60c25 0 47 6 67 16c6 -20 10 -46 10 -67z" />
    <glyph glyph-name="integral" unicode="&#x222b;" horiz-adv-x="311" 
d="M313 740c0 -22 -1 -48 -5 -71c-10 2 -34 3 -48 3c-51 0 -73 -30 -73 -90v-632c0 -102 -69 -166 -157 -166c-15 0 -33 2 -47 4c0 22 1 48 6 71c9 -2 33 -3 48 -3c50 0 72 30 72 90v632c0 102 69 166 157 166c15 0 34 -2 47 -4z" />
    <glyph glyph-name="ordfeminine" unicode="&#xaa;" horiz-adv-x="380" 
d="M351 393v-19c0 -28 -16 -39 -42 -39c-25 0 -44 9 -54 36h-3c-29 -26 -64 -36 -99 -36c-58 0 -97 29 -97 89c0 72 41 97 121 100l69 3v79c-15 8 -47 13 -72 13c-27 0 -60 -5 -79 -14c-5 16 -9 39 -9 56c29 8 59 13 91 13c44 0 97 -11 125 -32v-228c0 -16 5 -21 21 -21h28z
M246 407v79l-74 -3c-43 -2 -57 -18 -57 -53c0 -33 14 -47 50 -47c25 0 61 8 81 24z" />
    <glyph glyph-name="ordmasculine" unicode="&#xba;" horiz-adv-x="379" 
d="M337 504c0 -112 -64 -169 -149 -169c-88 0 -146 51 -146 169c0 109 60 170 148 170c85 0 147 -47 147 -170zM274 504c0 89 -36 118 -84 118c-46 0 -84 -28 -84 -118c0 -87 33 -117 82 -117c50 0 86 29 86 117z" />
    <glyph glyph-name="Omega" unicode="&#x2126;" horiz-adv-x="660" 
d="M607 0h-247l-4 61c84 30 155 123 155 313c0 174 -63 233 -182 233c-115 0 -179 -59 -179 -234s64 -282 154 -312l-3 -61h-248v73h140v5c-79 55 -128 159 -128 301c0 201 94 305 266 305c175 0 265 -108 265 -304c0 -142 -49 -246 -128 -302v-5h139v-73z" />
    <glyph glyph-name="ae" unicode="&#xe6;" horiz-adv-x="790" 
d="M731 325c0 -23 -1 -45 -4 -70l-311 -11c2 -109 29 -183 153 -183c50 0 100 14 131 33c8 -16 18 -51 21 -70c-39 -22 -102 -34 -155 -34c-83 0 -141 23 -183 81h-1c-69 -65 -124 -81 -180 -81c-94 0 -150 49 -150 145c0 113 64 153 188 157l102 4c4 54 16 105 35 138
c-34 17 -90 29 -135 29c-52 0 -99 -8 -130 -22c-5 19 -9 51 -9 70c49 15 86 21 141 21c68 0 130 -15 177 -44c35 30 75 44 122 44c120 0 188 -73 188 -207zM653 338c0 93 -41 134 -112 134c-72 0 -121 -52 -124 -174l235 8c1 8 1 25 1 32zM216 53c49 0 96 15 146 61
c-14 33 -21 75 -21 128l-101 -5c-67 -3 -109 -23 -109 -97c0 -61 25 -87 85 -87z" />
    <glyph glyph-name="oslash" unicode="&#xf8;" horiz-adv-x="568" 
d="M505 261c0 -184 -97 -271 -224 -271c-39 0 -74 7 -104 21l-46 -86h-44l57 107c-51 42 -81 116 -81 229c0 174 91 271 222 271c42 0 81 -8 113 -27l45 84h44l-57 -106c46 -42 75 -113 75 -222zM147 261c0 -77 12 -128 34 -160l183 341c-21 17 -48 24 -79 24
c-79 0 -138 -45 -138 -205zM422 261c0 69 -11 117 -31 150l-181 -338c20 -12 44 -17 72 -17c86 0 140 49 140 205z" />
    <glyph glyph-name="questiondown" unicode="&#xbf;" horiz-adv-x="368" 
d="M21 26c0 92 56 164 199 215v104c20 5 45 7 65 8c7 -44 13 -107 13 -154c-127 -37 -199 -89 -199 -168c0 -77 42 -111 128 -111c37 0 79 5 108 12c5 -20 7 -48 7 -71c-37 -8 -79 -11 -121 -11c-110 0 -200 53 -200 176zM208 497c0 31 20 48 46 48c27 0 47 -17 47 -48
c0 -30 -21 -49 -48 -49c-25 0 -45 19 -45 49z" />
    <glyph glyph-name="exclamdown" unicode="&#xa1;" horiz-adv-x="244" 
d="M82 -140c0 158 4 333 10 485c18 4 39 6 59 7c7 -156 12 -331 12 -492h-81zM76 497c0 31 19 48 46 48c26 0 46 -18 46 -48c0 -31 -20 -49 -47 -49c-26 0 -45 19 -45 49z" />
    <glyph glyph-name="logicalnot" unicode="&#xac;" horiz-adv-x="498" 
d="M453 139c-21 -4 -44 -6 -63 -6v167h-355v65h418v-226z" />
    <glyph glyph-name="radical" unicode="&#x221a;" horiz-adv-x="523" 
d="M521 674c0 -22 -2 -46 -7 -69h-97l-77 -605h-75c-83 164 -169 348 -245 530c18 5 53 9 72 9l179 -383c7 -15 16 -37 21 -55h6c0 17 2 44 4 60l59 513h160z" />
    <glyph glyph-name="florin" unicode="&#x192;" 
d="M417 680c0 -22 -2 -46 -6 -70c-11 2 -34 4 -48 4c-50 0 -91 -33 -91 -99v-122h164c0 -21 -2 -44 -6 -66h-158v-459h-75v459h-137v66h137v115c0 111 78 176 171 176c16 0 34 -2 49 -4z" />
    <glyph glyph-name="approxequal" unicode="&#x2248;" horiz-adv-x="496" 
d="M438 353c-25 -22 -55 -36 -88 -36c-68 0 -127 43 -194 43c-37 0 -70 -15 -98 -41v60c28 26 60 41 98 41c66 0 126 -42 193 -42c33 0 63 13 89 36v-61zM438 164c-25 -22 -55 -36 -88 -36c-68 0 -127 43 -194 43c-38 0 -70 -15 -98 -41v60c28 26 60 41 98 41
c66 0 126 -42 193 -42c33 0 63 14 89 36v-61z" />
    <glyph glyph-name="Delta" unicode="&#x2206;" horiz-adv-x="563" 
d="M551 0h-539c66 216 145 450 228 674h84c77 -217 159 -458 227 -674zM445 69l-159 480c-3 8 -5 21 -7 32h-3c-2 -12 -5 -24 -8 -32l-159 -480h336z" />
    <glyph glyph-name="guillemotleft" unicode="&#xab;" horiz-adv-x="475" 
d="M233 56l-62 -13l-139 220l139 220l62 -14l-122 -207zM443 56l-63 -13l-139 220l139 220l63 -14l-122 -207z" />
    <glyph glyph-name="guillemotright" unicode="&#xbb;" horiz-adv-x="475" 
d="M443 263l-139 -220l-63 14l122 207l-122 206l63 13zM233 263l-139 -220l-62 14l121 207l-121 206l62 13z" />
    <glyph glyph-name="ellipsis" unicode="&#x2026;" horiz-adv-x="616" 
d="M149 35c0 -31 -20 -47 -46 -47c-27 0 -46 17 -46 47c0 31 19 50 46 50c26 0 46 -19 46 -50zM354 35c0 -31 -20 -47 -46 -47c-27 0 -46 17 -46 47c0 31 19 50 46 50c26 0 46 -19 46 -50zM559 35c0 -31 -20 -47 -46 -47c-27 0 -46 17 -46 47c0 31 19 50 46 50
c26 0 46 -19 46 -50z" />
    <glyph glyph-name="nbspace" unicode="&#xa0;" horiz-adv-x="204" 
 />
    <glyph glyph-name="Agrave" unicode="&#xc0;" horiz-adv-x="568" 
d="M554 6c-24 -7 -54 -10 -81 -11l-72 215h-242l-70 -215c-24 1 -52 4 -75 11c66 215 143 443 227 668h87c78 -217 158 -453 226 -668zM380 279l-88 270c-4 15 -7 27 -8 45h-6c-1 -18 -3 -30 -7 -45l-89 -270h198zM246 815l72 -102c-12 -2 -53 -7 -66 -7
c-44 39 -68 69 -87 109h81z" />
    <glyph glyph-name="Atilde" unicode="&#xc3;" horiz-adv-x="568" 
d="M554 6c-24 -7 -54 -10 -81 -11l-72 215h-242l-70 -215c-24 1 -52 4 -75 11c66 215 143 443 227 668h87c78 -217 158 -453 226 -668zM380 279l-88 270c-4 15 -7 27 -8 45h-6c-1 -18 -3 -30 -7 -45l-89 -270h198zM126 714c16 80 46 97 89 97s100 -46 133 -46
c22 0 35 5 42 54c15 -1 40 -6 54 -11c-14 -83 -46 -98 -88 -98c-43 0 -103 46 -135 46c-24 0 -36 -11 -41 -53c-14 0 -38 4 -54 11z" />
    <glyph glyph-name="Otilde" unicode="&#xd5;" horiz-adv-x="676" 
d="M612 337c0 -236 -107 -347 -273 -347c-175 0 -275 110 -275 343c0 231 103 351 275 351c174 0 273 -112 273 -347zM522 337c0 204 -64 274 -184 274c-121 0 -184 -68 -184 -274c0 -193 54 -274 185 -274c127 0 183 77 183 274zM179 714c16 80 46 97 89 97
s100 -46 133 -46c22 0 35 5 42 54c15 -1 40 -6 54 -11c-14 -83 -46 -98 -88 -98c-43 0 -103 46 -135 46c-24 0 -36 -11 -41 -53c-14 0 -38 4 -54 11z" />
    <glyph glyph-name="OE" unicode="&#x152;" horiz-adv-x="942" 
d="M885 74c0 -23 -3 -50 -7 -74h-365v78h-3c-39 -60 -106 -88 -179 -88c-177 0 -267 116 -267 343c0 220 92 351 266 351c79 0 143 -28 180 -84h3v74h356c0 -23 -3 -50 -7 -74h-281v-210h214v-74h-214v-242h304zM504 337c0 198 -53 274 -173 274c-121 0 -177 -75 -177 -274
c0 -191 49 -275 179 -275c128 0 171 84 171 275z" />
    <glyph glyph-name="oe" unicode="&#x153;" horiz-adv-x="868" 
d="M809 327c0 -23 0 -52 -2 -75h-313c1 -138 52 -190 158 -190c44 0 97 12 127 32c8 -19 18 -52 21 -70c-39 -23 -103 -34 -154 -34c-100 0 -157 37 -188 109c-38 -77 -95 -109 -177 -109c-137 0 -218 84 -218 271c0 169 86 271 221 271c84 0 143 -34 174 -109
c31 73 86 109 163 109c125 0 188 -79 188 -205zM731 306c1 8 1 25 1 32c0 95 -42 134 -113 134c-78 0 -116 -50 -124 -166h236zM421 261c0 147 -49 205 -137 205c-83 0 -138 -50 -138 -205c0 -152 46 -206 135 -206c90 0 140 54 140 206z" />
    <glyph glyph-name="endash" unicode="&#x2013;" 
d="M445 235h-390v61h398c0 -19 -3 -42 -8 -61z" />
    <glyph glyph-name="emdash" unicode="&#x2014;" horiz-adv-x="1000" 
d="M929 235h-862v61h869c0 -19 -2 -43 -7 -61z" />
    <glyph glyph-name="quotedblleft" unicode="&#x201c;" horiz-adv-x="403" 
d="M42 526c0 91 38 160 113 196c12 -13 21 -27 28 -45c-59 -29 -82 -73 -82 -130h38c9 -30 12 -65 12 -96h-109v75zM222 526c0 91 37 160 112 196c13 -13 22 -27 29 -45c-60 -29 -83 -73 -83 -130h39c8 -30 11 -65 11 -96h-108v75z" />
    <glyph glyph-name="quotedblright" unicode="&#x201d;" horiz-adv-x="403" 
d="M181 638c0 -91 -38 -160 -113 -196c-12 13 -21 28 -28 45c59 29 82 73 82 130h-38c-9 30 -12 64 -12 96h109v-75zM360 638c0 -91 -37 -160 -112 -196c-12 13 -22 28 -29 45c60 29 83 73 83 130h-39c-8 30 -11 64 -11 96h108v-75z" />
    <glyph glyph-name="quoteleft" unicode="&#x2018;" horiz-adv-x="223" 
d="M42 526c0 91 38 160 113 196c12 -13 21 -27 28 -45c-59 -29 -82 -73 -82 -130h38c9 -30 12 -65 12 -96h-109v75z" />
    <glyph glyph-name="quoteright" unicode="&#x2019;" horiz-adv-x="223" 
d="M181 638c0 -91 -38 -160 -113 -196c-12 13 -21 28 -28 45c59 29 82 73 82 130h-38c-9 30 -12 64 -12 96h109v-75z" />
    <glyph glyph-name="divide" unicode="&#xf7;" horiz-adv-x="407" 
d="M250 84c0 -30 -20 -47 -46 -47c-27 0 -46 17 -46 47c0 32 19 50 47 50c25 0 45 -19 45 -50zM250 460c0 -31 -20 -48 -46 -48c-27 0 -46 18 -46 48c0 31 19 50 47 50c25 0 45 -19 45 -50zM343 247h-279v54h279v-54z" />
    <glyph glyph-name="lozenge" unicode="&#x25ca;" horiz-adv-x="461" 
d="M412 241c-44 -86 -94 -169 -148 -251h-68c-52 80 -102 165 -147 251v52c43 84 92 168 147 252h68c54 -78 105 -165 148 -253v-51zM352 267l-122 216l-121 -214l123 -216z" />
    <glyph glyph-name="ydieresis" unicode="&#xff;" horiz-adv-x="510" 
d="M481 518l-176 -509c-55 -158 -117 -225 -209 -225c-24 0 -59 3 -89 19c3 25 9 53 17 72c20 -10 50 -16 77 -16c41 0 69 22 90 71l30 70c-63 150 -134 348 -180 518c21 4 54 7 76 7l125 -384c6 -19 13 -41 16 -62h4c4 21 10 43 17 63l126 383c20 0 55 -2 76 -7zM223 633
c0 -27 -17 -47 -45 -47s-45 21 -45 47c0 27 17 49 46 49c28 0 44 -22 44 -49zM398 633c0 -27 -17 -47 -45 -47s-44 21 -44 47c0 27 16 49 45 49c28 0 44 -22 44 -49z" />
    <glyph glyph-name="Ydieresis" unicode="&#x178;" horiz-adv-x="550" 
d="M526 669c-71 -151 -131 -272 -210 -412v-257h-84v257c-79 137 -147 276 -208 412c24 5 63 7 87 7l143 -294c7 -15 14 -32 20 -50h6c6 18 12 35 20 52l144 292c25 0 57 -2 82 -7zM235 756c0 -25 -17 -42 -45 -42c-27 0 -44 18 -44 42c0 25 17 43 45 43c27 0 44 -18 44 -43
zM412 756c0 -25 -17 -42 -45 -42c-27 0 -43 18 -43 42c0 25 16 43 44 43c27 0 44 -18 44 -43z" />
    <glyph glyph-name="fraction" unicode="&#x2044;" horiz-adv-x="161" 
d="M243 672l-274 -680c-20 3 -36 9 -51 17l271 675c16 -1 38 -5 54 -12z" />
    <glyph glyph-name="currency" unicode="&#xa4;" 
d="M389 232h-210c15 -118 61 -170 148 -170c43 0 91 11 127 32c5 -24 8 -49 9 -76c-38 -20 -92 -28 -136 -28c-129 0 -206 79 -228 242h-65v56h60c-1 16 -1 32 -1 50c0 20 0 39 2 58h-61v55h67c26 165 113 233 225 233c37 0 96 -7 126 -20c0 -23 -3 -52 -9 -76
c-30 13 -76 23 -116 23c-80 0 -129 -41 -146 -160h234c0 -14 -3 -37 -8 -55h-232c-1 -19 -1 -39 -1 -61c0 -17 0 -32 1 -47h222c0 -15 -3 -37 -8 -56z" />
    <glyph glyph-name="guilsinglleft" unicode="&#x2039;" horiz-adv-x="265" 
d="M233 56l-62 -13l-139 220l139 220l62 -14l-122 -207z" />
    <glyph glyph-name="guilsinglright" unicode="&#x203a;" horiz-adv-x="265" 
d="M233 263l-139 -220l-62 14l121 207l-121 206l62 13z" />
    <glyph glyph-name="fi" unicode="&#xfb01;" horiz-adv-x="604" 
d="M504 0h-78v455h-223v-455h-78v455h-64v67h64v65c0 102 72 157 148 157c15 0 35 -2 48 -4c0 -21 -2 -48 -6 -71c-11 2 -32 3 -47 3c-47 0 -65 -24 -65 -78v-72h301v-522zM512 669c0 -28 -16 -49 -47 -49s-47 22 -47 49s16 50 48 50c30 0 46 -23 46 -50z" />
    <glyph glyph-name="fl" unicode="&#xfb02;" horiz-adv-x="617" 
d="M516 0h-78v667c-28 5 -89 10 -128 10c-84 0 -107 -27 -107 -81v-74h113c0 -22 -2 -46 -6 -67h-107v-455h-78v455h-64v67h64v68c0 101 69 154 190 154c55 0 142 -7 201 -17v-727z" />
    <glyph glyph-name="daggerdbl" unicode="&#x2021;" horiz-adv-x="523" 
d="M472 59h-173v-188c-21 -6 -51 -9 -75 -9v197h-173v71h173v161h-173v71h173v183h75v-183h173v-71h-173v-161h173v-71z" />
    <glyph glyph-name="periodcentered" unicode="&#xb7;" horiz-adv-x="214" 
d="M153 282c0 -30 -20 -47 -46 -47c-27 0 -46 17 -46 47c0 32 19 50 47 50c25 0 45 -19 45 -50z" />
    <glyph glyph-name="quotesinglbase" unicode="&#x201a;" horiz-adv-x="223" 
d="M181 91c0 -91 -38 -160 -113 -196c-12 13 -21 28 -28 46c58 26 81 76 81 126h-39c-8 30 -11 67 -11 99h110v-75z" />
    <glyph glyph-name="quotedblbase" unicode="&#x201e;" horiz-adv-x="403" 
d="M181 91c0 -91 -38 -160 -113 -196c-12 13 -21 28 -28 46c58 26 81 76 81 126h-39c-8 30 -11 67 -11 99h110v-75zM361 91c0 -91 -37 -160 -113 -196c-12 13 -22 28 -28 46c57 26 81 76 81 126h-39c-8 30 -11 67 -11 99h110v-75z" />
    <glyph glyph-name="perthousand" unicode="&#x2030;" horiz-adv-x="1159" 
d="M344 494c0 -119 -54 -190 -152 -190c-94 0 -155 60 -155 190c0 126 64 190 155 190c97 0 152 -62 152 -190zM278 494c0 85 -21 136 -86 136c-62 0 -88 -47 -88 -136c0 -92 25 -136 88 -136s86 48 86 136zM568 671l-270 -680c-20 3 -39 9 -57 18l265 671c20 0 44 -4 62 -9
zM768 180c0 -119 -55 -190 -153 -190c-94 0 -155 60 -155 190c0 126 64 190 155 190c97 0 153 -62 153 -190zM701 180c0 85 -20 136 -86 136c-61 0 -88 -47 -88 -136c0 -92 26 -136 88 -136c63 0 86 48 86 136zM1122 180c0 -119 -54 -190 -152 -190c-94 0 -155 60 -155 190
c0 126 64 190 155 190c97 0 152 -62 152 -190zM1056 180c0 85 -20 136 -86 136c-62 0 -88 -47 -88 -136c0 -92 25 -136 88 -136s86 48 86 136z" />
    <glyph glyph-name="Acircumflex" unicode="&#xc2;" horiz-adv-x="568" 
d="M554 6c-24 -7 -54 -10 -81 -11l-72 215h-242l-70 -215c-24 1 -52 4 -75 11c66 215 143 443 227 668h87c78 -217 158 -453 226 -668zM380 279l-88 270c-4 15 -7 27 -8 45h-6c-1 -18 -3 -30 -7 -45l-89 -270h198zM424 711c-18 -4 -46 -6 -67 -6l-73 77l-74 -77
c-19 0 -48 2 -66 5c36 48 54 71 87 105h108c32 -34 55 -63 85 -104z" />
    <glyph glyph-name="Ecircumflex" unicode="&#xca;" horiz-adv-x="548" 
d="M491 74c0 -23 -3 -50 -7 -74h-381v674h371c0 -23 -2 -50 -6 -74h-281v-210h214v-74h-214v-242h304zM428 711c-18 -4 -46 -6 -67 -6l-73 77l-74 -77c-19 0 -48 2 -66 5c36 48 54 71 87 105h108c32 -34 55 -63 85 -104z" />
    <glyph glyph-name="Aacute" unicode="&#xc1;" horiz-adv-x="568" 
d="M554 6c-24 -7 -54 -10 -81 -11l-72 215h-242l-70 -215c-24 1 -52 4 -75 11c66 215 143 443 227 668h87c78 -217 158 -453 226 -668zM380 279l-88 270c-4 15 -7 27 -8 45h-6c-1 -18 -3 -30 -7 -45l-89 -270h198zM399 815c-20 -40 -44 -70 -88 -109c-13 0 -54 5 -65 7
l71 102h82z" />
    <glyph glyph-name="Edieresis" unicode="&#xcb;" horiz-adv-x="548" 
d="M491 74c0 -23 -3 -50 -7 -74h-381v674h371c0 -23 -2 -50 -6 -74h-281v-210h214v-74h-214v-242h304zM240 756c0 -25 -17 -42 -45 -42c-27 0 -44 18 -44 42c0 25 17 43 45 43c27 0 44 -18 44 -43zM417 756c0 -25 -17 -42 -45 -42c-27 0 -43 18 -43 42c0 25 16 43 44 43
c27 0 44 -18 44 -43z" />
    <glyph glyph-name="Egrave" unicode="&#xc8;" horiz-adv-x="548" 
d="M491 74c0 -23 -3 -50 -7 -74h-381v674h371c0 -23 -2 -50 -6 -74h-281v-210h214v-74h-214v-242h304zM258 815l72 -102c-12 -2 -53 -7 -66 -7c-44 39 -68 69 -87 109h81z" />
    <glyph glyph-name="Iacute" unicode="&#xcd;" horiz-adv-x="290" 
d="M187 0h-84v674h84v-674zM262 815c-20 -40 -44 -70 -88 -109c-13 0 -54 5 -65 7l71 102h82z" />
    <glyph glyph-name="Icircumflex" unicode="&#xce;" horiz-adv-x="290" 
d="M285 711c-18 -4 -46 -6 -67 -6l-73 77l-74 -77c-19 0 -48 2 -66 5c36 48 54 71 87 105h108c32 -34 55 -63 85 -104zM187 0h-84v674h84v-674z" />
    <glyph glyph-name="Idieresis" unicode="&#xcf;" horiz-adv-x="290" 
d="M101 756c0 -25 -17 -42 -45 -42c-27 0 -44 18 -44 42c0 25 17 43 45 43c27 0 44 -18 44 -43zM278 756c0 -25 -17 -42 -45 -42c-27 0 -43 18 -43 42c0 25 16 43 44 43c27 0 44 -18 44 -43zM187 0h-84v674h84v-674z" />
    <glyph glyph-name="Igrave" unicode="&#xcc;" horiz-adv-x="290" 
d="M111 815l72 -102c-12 -2 -53 -7 -66 -7c-44 39 -68 69 -87 109h81zM187 0h-84v674h84v-674z" />
    <glyph glyph-name="Oacute" unicode="&#xd3;" horiz-adv-x="676" 
d="M612 337c0 -236 -107 -347 -273 -347c-175 0 -275 110 -275 343c0 231 103 351 275 351c174 0 273 -112 273 -347zM522 337c0 204 -64 274 -184 274c-121 0 -184 -68 -184 -274c0 -193 54 -274 185 -274c127 0 183 77 183 274zM447 815c-20 -40 -44 -70 -88 -109
c-13 0 -54 5 -65 7l71 102h82z" />
    <glyph glyph-name="Ocircumflex" unicode="&#xd4;" horiz-adv-x="676" 
d="M612 337c0 -236 -107 -347 -273 -347c-175 0 -275 110 -275 343c0 231 103 351 275 351c174 0 273 -112 273 -347zM522 337c0 204 -64 274 -184 274c-121 0 -184 -68 -184 -274c0 -193 54 -274 185 -274c127 0 183 77 183 274zM477 711c-18 -4 -46 -6 -67 -6l-73 77
l-74 -77c-19 0 -48 2 -66 5c36 48 54 71 87 105h108c32 -34 55 -63 85 -104z" />
    <glyph glyph-name="Ograve" unicode="&#xd2;" horiz-adv-x="676" 
d="M612 337c0 -236 -107 -347 -273 -347c-175 0 -275 110 -275 343c0 231 103 351 275 351c174 0 273 -112 273 -347zM522 337c0 204 -64 274 -184 274c-121 0 -184 -68 -184 -274c0 -193 54 -274 185 -274c127 0 183 77 183 274zM311 815l72 -102c-12 -2 -53 -7 -66 -7
c-44 39 -68 69 -87 109h81z" />
    <glyph glyph-name="Uacute" unicode="&#xda;" horiz-adv-x="676" 
d="M574 266c0 -173 -59 -276 -237 -276c-150 0 -235 58 -235 276v408h84v-424c0 -134 34 -184 153 -184c106 0 156 53 156 184v424h79v-408zM443 815c-20 -40 -44 -70 -88 -109c-13 0 -54 5 -65 7l71 102h82z" />
    <glyph glyph-name="Ucircumflex" unicode="&#xdb;" horiz-adv-x="676" 
d="M574 266c0 -173 -59 -276 -237 -276c-150 0 -235 58 -235 276v408h84v-424c0 -134 34 -184 153 -184c106 0 156 53 156 184v424h79v-408zM482 711c-18 -4 -46 -6 -67 -6l-73 77l-74 -77c-19 0 -48 2 -66 5c36 48 54 71 87 105h108c32 -34 55 -63 85 -104z" />
    <glyph glyph-name="Ugrave" unicode="&#xd9;" horiz-adv-x="676" 
d="M574 266c0 -173 -59 -276 -237 -276c-150 0 -235 58 -235 276v408h84v-424c0 -134 34 -184 153 -184c106 0 156 53 156 184v424h79v-408zM321 815l72 -102c-12 -2 -53 -7 -66 -7c-44 39 -68 69 -87 109h81z" />
    <glyph glyph-name="dotlessi" unicode="&#x131;" horiz-adv-x="279" 
d="M179 0h-78v522h78v-522z" />
    <glyph glyph-name="circumflex" unicode="&#x2c6;" 
d="M398 578c-20 -4 -44 -6 -66 -6l-81 112l-81 -112c-19 0 -45 2 -64 5c33 58 64 104 100 154h92c37 -50 69 -97 100 -153z" />
    <glyph glyph-name="tilde" unicode="&#x2dc;" 
d="M81 583c20 98 52 112 98 112c17 0 34 -5 51 -14l53 -30c14 -8 25 -11 35 -11c24 0 34 8 44 63c16 0 40 -5 58 -13c-20 -95 -50 -112 -97 -112c-16 0 -33 3 -52 14l-52 29c-14 8 -26 12 -36 12c-26 0 -35 -9 -45 -63c-16 0 -40 5 -57 13z" />
    <glyph glyph-name="macron" unicode="&#xaf;" 
d="M379 666c0 -18 -3 -44 -8 -63h-244v63h252z" />
    <glyph glyph-name="breve" unicode="&#x2d8;" 
d="M424 705c-33 -100 -95 -135 -175 -135s-140 38 -170 135c18 8 40 15 62 19c19 -62 54 -92 110 -92c57 0 94 30 114 92c21 -4 42 -11 59 -19z" />
    <glyph glyph-name="dotaccent" unicode="&#x2d9;" 
d="M297 633c0 -28 -16 -49 -48 -49c-30 0 -46 22 -46 49s16 50 47 50s47 -23 47 -50z" />
    <glyph glyph-name="ring" unicode="&#x2da;" 
d="M362 669c0 -58 -42 -99 -111 -99c-76 0 -113 40 -113 99c0 58 40 101 113 101s111 -39 111 -101zM304 671c0 35 -20 55 -53 55c-31 0 -55 -18 -55 -55s18 -58 53 -58c32 0 55 19 55 58z" />
    <glyph glyph-name="cedilla" unicode="&#xb8;" 
d="M363 -120c0 -61 -42 -97 -128 -97c-17 0 -43 3 -62 7c-4 18 -5 38 -5 54c20 -6 46 -8 62 -8c39 0 68 9 68 46c0 33 -22 45 -61 45c-12 0 -32 -2 -44 -4c1 13 7 35 12 46h53c70 0 105 -33 105 -89z" />
    <glyph glyph-name="hungarumlaut" unicode="&#x2dd;" 
d="M266 731c-19 -51 -52 -108 -95 -159c-18 0 -39 2 -55 7l74 152h76zM403 731c-19 -51 -52 -108 -95 -159c-18 0 -40 2 -55 7l74 152h76z" />
    <glyph glyph-name="ogonek" unicode="&#x2db;" 
d="M370 20c-126 -61 -149 -96 -149 -139c0 -37 22 -48 55 -48c17 0 35 3 53 7c-1 -13 -5 -36 -9 -50c-19 -4 -44 -7 -61 -7c-60 0 -104 26 -104 89c0 64 49 110 181 163z" />
    <glyph glyph-name="caron" unicode="&#x2c7;" 
d="M104 727c20 5 43 7 66 7l81 -112l81 112c19 0 45 -2 64 -6c-33 -58 -64 -104 -100 -153h-92c-37 49 -69 97 -100 152z" />
    <glyph glyph-name="Idotaccent" unicode="&#x130;" horiz-adv-x="290" 
d="M187 0h-84v674h84v-674zM192 785c0 -28 -16 -49 -48 -49c-30 0 -46 22 -46 49s16 50 47 50s47 -23 47 -50z" />
    <glyph glyph-name="Scedilla" unicode="&#x15e;" horiz-adv-x="519" 
d="M464 178c0 -112 -81 -188 -219 -188c-55 0 -126 8 -179 31c3 24 12 55 19 75c55 -24 111 -33 168 -33c83 0 127 38 127 108c0 153 -314 136 -314 329c0 119 93 184 225 184c43 0 101 -5 141 -15c0 -18 -6 -53 -13 -76c-41 11 -96 18 -138 18c-102 0 -130 -42 -130 -103
c0 -134 313 -122 313 -330zM357 -120c0 -61 -42 -97 -128 -97c-17 0 -43 3 -62 7c-4 18 -5 38 -5 54c20 -6 46 -8 62 -8c39 0 68 9 68 46c0 33 -22 45 -61 45c-12 0 -32 -2 -44 -4c1 13 7 35 12 46h53c70 0 105 -33 105 -89z" />
    <glyph glyph-name="scedilla" unicode="&#x15f;" horiz-adv-x="449" 
d="M392 142c0 -105 -87 -152 -188 -152c-50 0 -108 10 -149 32c6 24 12 48 21 70c41 -21 95 -31 144 -31c65 0 90 27 90 75c0 113 -245 83 -245 240c0 102 85 156 189 156c32 0 82 -4 120 -15c0 -21 -6 -51 -12 -73c-36 13 -87 19 -129 19c-57 0 -89 -24 -89 -78
c0 -96 248 -72 248 -243zM322 -120c0 -61 -42 -97 -128 -97c-17 0 -43 3 -62 7c-4 18 -5 38 -5 54c20 -6 46 -8 62 -8c39 0 68 9 68 46c0 33 -22 45 -61 45c-12 0 -32 -2 -44 -4c1 13 7 35 12 46h53c70 0 105 -33 105 -89z" />
    <glyph glyph-name="gbreve" unicode="&#x11f;" horiz-adv-x="539" 
d="M493 -37c0 -107 -75 -179 -225 -179c-156 0 -204 65 -204 152c0 42 14 76 51 114c-13 21 -23 45 -28 69c9 33 32 84 56 113c-39 26 -61 73 -61 127c0 102 67 173 178 173c27 0 57 -5 79 -10h150c0 -18 -2 -39 -7 -57l-73 -5l-1 -3c22 -25 32 -57 32 -95
c0 -113 -78 -166 -173 -166c-27 0 -56 5 -73 11c-25 -31 -34 -60 -34 -74c0 -24 10 -33 30 -33h162c86 0 141 -36 141 -137zM419 -44c0 58 -21 72 -69 72h-188c-21 -21 -27 -54 -27 -75c0 -77 37 -104 135 -104c94 0 149 31 149 107zM366 365c0 79 -40 110 -105 110
c-67 0 -103 -37 -103 -110c0 -76 37 -109 103 -109s105 30 105 109zM442 705c-33 -100 -95 -135 -175 -135s-140 38 -170 135c18 8 40 15 62 19c19 -62 54 -92 110 -92c57 0 94 30 114 92c21 -4 42 -11 59 -19z" />
    <glyph glyph-name="Gbreve" unicode="&#x11e;" horiz-adv-x="647" 
d="M559 34c-47 -24 -125 -44 -194 -44c-205 0 -301 119 -301 348c0 242 121 346 307 346c59 0 126 -10 173 -32c-3 -22 -11 -54 -18 -77c-39 20 -101 34 -152 34c-138 0 -220 -59 -220 -275c0 -209 79 -269 215 -269c29 0 75 5 106 20v182h-135c-5 21 -7 50 -7 73h226v-306z
M496 857c-33 -100 -95 -135 -175 -135s-140 38 -170 135c18 8 40 15 62 19c19 -62 54 -92 110 -92c57 0 94 30 114 92c21 -4 42 -11 59 -19z" />
    </font>
</defs>
</svg>
